<?xml version="1.0" standalone="no"?>
<!DOCTYPE svg PUBLIC "-//W3C//DTD SVG 1.1//EN" "http://www.w3.org/Graphics/SVG/1.1/DTD/svg11.dtd" >
<svg xmlns="http://www.w3.org/2000/svg">
<metadata>Generated by IcoMoon</metadata>
<defs>
<font id="webfont-medical-icons" horiz-adv-x="1024">
<font-face units-per-em="1024" ascent="960" descent="-64" />
<missing-glyph horiz-adv-x="1024" />
<glyph unicode="&#x20;" d="" horiz-adv-x="512" />
<glyph unicode="&#xe600;" d="M514.685 702.919c-69.292 0-125.556 55.754-125.556 124.565 0 68.773 56.249 124.532 125.556 124.532 69.302 0 125.556-55.754 125.556-124.532 0.005-68.811-56.244-124.565-125.556-124.565zM854.427 122.193c-28.106-8.065-56.853 6.13-64.314 31.857l-96.091 335.617-46.896 0.071 153.657-535.495h-572.487l153.671 535.495-46.953-0.071-96.138-335.617c-7.361-25.737-36.128-39.922-64.215-31.857-28.143 8.065-45.887 32.669-36.449 64.809l98.899 344.324c39.497 137.641 154.69 133.328 154.69 133.328h245.51c0 0 115.193 4.318 154.728-133.328l98.823-344.324c9.424-32.14-8.324-56.745-36.435-64.809zM515.294 427.336c-85.11 0-154.081-68.948-154.081-154.029 0-77.319 56.957-141.359 131.242-152.387v-42.253h-46.349v-46.132h46.349v-46.297h46.104v46.297h46.325v46.132h-46.325v42.324c74.11 11.207 130.751 75.172 130.751 152.316 0 85.082-68.915 154.029-154.015 154.029zM514.515 167.91c-59.364 0-107.454 48.123-107.454 107.487 0 59.326 48.095 107.482 107.454 107.482 59.401 0 107.478-48.156 107.478-107.482 0.009-59.364-48.076-107.487-107.478-107.487z" />
<glyph unicode="&#xe601;" d="M777.529 425.262l-267.227 43.962 38.342 27.297 64.171-8.884 64.101 8.884zM612.815 930.271c53.557 0 96.99-43.401 96.99-97.032 0-53.594-34.157-97.028-96.99-97.028-53.594 0-97.065 43.433-97.065 97.028 0 53.622 43.471 97.032 97.065 97.032zM636.956 229.051v-234.473c0-29.242 23.758-52.921 52.996-52.921 29.247 0 52.963 23.678 52.963 52.921v234.473c0 29.205-23.716 52.958-52.963 52.958-29.238 0-52.996-23.753-52.996-52.958zM961.471 95.188c0-16.978-13.808-30.748-30.711-30.748h-162.433v153.544h70.254v153.432c0 16.903 13.78 30.683 30.683 30.683h61.496c16.903 0 30.711-13.78 30.711-30.683v-276.228zM611.618 64.44h-315.336c-16.978 0-30.72 13.77-30.72 30.748v276.228c0 16.903 13.742 30.683 30.72 30.683h61.463c16.94 0 30.715-13.78 30.715-30.683v-153.432h223.162v-153.544zM445.566 395.734c-4.746-28.85 14.799-56.147 43.649-60.893l231.349-38.126c28.859-4.676 56.119 14.794 60.87 43.681 4.741 28.859-14.761 56.156-43.649 60.841l-231.349 38.155c-28.85 4.704-56.086-14.799-60.87-43.658zM184.661 686.129c-75.491 0-136.884 61.393-136.884 136.921 0 75.528 61.398 136.949 136.884 136.949 75.486 0 136.959-61.421 136.959-136.949-0.005-75.528-61.468-136.921-136.959-136.921v0zM184.661 720.019c56.792 0 103.078 46.206 103.078 103.064 0 56.778-46.281 103.059-103.078 103.059-56.83 0-103.003-46.272-103.003-103.059-0.005-56.853 46.178-103.064 103.003-103.064v0zM185.363 804.974c-3.058-1.403-6.785-1.267-9.843 0.739-2.562 1.651-4.18 4.25-4.601 7.103l-0.14 79.577c0 5.704 4.638 10.31 10.301 10.31 5.69 0 10.296-4.606 10.296-10.31v0-61.739l52.785 24.857c5.097 2.459 11.283 0.248 13.705-4.882v0c2.422-5.176 0.21-11.292-4.919-13.714v0l-67.584-31.94zM612.815 659.033l125.779 20.485v-88.419c20.036-15.075 62.099-46.707 62.099-46.707 5.976-6.013 3.554-12.863 2.137-14.799-3.549-4.671-10.146-5.625-14.827-2.142l-78.376 59.238c-16.267 11.451-38.683 7.575-50.143-8.655-11.456-16.244-7.598-38.692 8.641-50.162l133.901-94.054c6.219-4.386 15.079-7.369 23.893-7.369v0c7.519 0 16.375 3.123 22.953 7.799 14.055 9.978 19.222 27.699 14.444 44.023l-49.736 146.942c-13.284 36.518-46.772 79.493-97.070 79.493h-207.442c-50.293 0-83.781-42.98-97.074-79.493l-49.727-146.937c-4.783-16.323 0.416-34.044 14.472-44.023 6.541-4.666 15.425-7.799 22.911-7.799v0c8.865 0 17.721 2.969 23.94 7.369l133.901 94.054c16.234 11.47 20.101 33.914 8.641 50.162-11.493 16.23-33.909 20.106-50.143 8.655l-78.413-59.238c-4.638-3.479-11.245-2.53-14.794 2.142-1.407 1.931-3.872 8.786 2.109 14.799 0 0 42.106 31.627 62.132 46.707v88.419l125.793-20.489z" horiz-adv-x="1019" />
<glyph unicode="&#xe602;" d="M753.196 546.385c108.169 108.484 109.066 284.428 1.574 393.341l-18.47-18.48c97.589-99.010 97.245-258.335-0.925-356.878l17.821-17.984zM700.628 885.604l17.841 17.86c87.791-89.193 86.484-231.746-1.889-320.472l0.048-0.048-17.621 17.802c78.126 78.46 79.147 205.901 1.622 284.857zM659.652 639.9l20.588-20.588c67.832 68.176 68.233 178.281 1.011 246.944l-20.712-20.712c55.811-57.214 55.506-148.907-0.887-205.643zM624.009 675.562l18.842-18.842c46.843 47.168 46.71 123.873 0.458 171.536l-18.423-18.413c35.366-37.608 35.433-97.388-0.878-134.281zM603.717 696.351c25.511 25.53 25.606 66.888 0.219 92.523l-18.403-18.394c15.255-15.246 15.255-39.955 0-55.191l-0.496-0.744 18.68-18.194zM413.176 878.248c-43.428-4.866-201.417-77.077-206.006-449.334-4.847-392.149 162.578-474.664 206.483-473.738v259.003c-36.139 0-43.428 39.364-51.661 120.572-5.495 53.732-7.089 120.257 0 186.353 4.942 46.395 13.547 91.674 51.385 91.674l-0.2 265.471zM506.824-45.272c16.753 0 28.764 13.633 28.764 28.898l0.114 0.153c0 0-0.114 201.865-0.114 201.989 0 16.028-13.004 28.65-28.764 28.65h-73.375v-259.671c0 0 73.204-0.134 73.223-0.076l0.153 0.057zM506.824 612.739c16.753 0 28.764 13.633 28.764 28.926l0.114 0.134c0 0-0.114 207.685-0.114 207.819 0 16.028-13.004 28.64-28.764 28.64h-73.375v-265.5c0 0 73.204-0.143 73.223-0.048l0.153 0.029z" />
<glyph unicode="&#xe603;" d="M883.378 81.126c26.549 32.434 35.854 77.552 20.41 119.775l-13.984 38.663h84.875v715.541h-920.661v-715.541h495.095l54.014-148.146c15.337-42.186 51.501-70.844 92.672-78.571l25.375-76.819 212.438-0.028-50.232 145.126zM806.146 467.728c-45.357-16.53-68.805-66.795-52.266-112.184l32.74-89.318h-705.954v662.232h867.398v-662.232h-68.138l-73.78 201.503zM869.353 588.415c-196.049-196.007-513.959-196.007-710.003 0l288.087 288.228c36.902-36.977 96.824-36.977 133.721 0l288.195-288.228zM664.98 646.961c31.373 21.537 39.41 64.395 18.014 95.876-21.584 31.368-64.512 39.438-95.847 17.939-31.448-21.65-39.415-64.47-17.906-95.805 21.476-31.406 64.343-39.405 95.739-18.009zM590.608 606.429c-1.409 3.983-3.208 7.788-6.346 11.067 0 0-55.954 59.040-69.773 73.564 0.916 17.549 3.114 63.028 3.114 63.028 0.742 16.318-11.983 30.311-28.385 31.054-16.356 0.808-30.321-11.809-31.049-28.235l-3.537-75.682c-0.413-8.075 2.504-16.041 8.046-21.852l25.553-27-76.73-50.65 4.134 57.945c-1.973 22.345-21.711 38.851-43.966 36.944 0 0-72.962-5.040-99.427-7.262-16.746-1.48-29.259-16.252-27.742-33.031 1.409-16.741 16.248-29.222 32.961-27.812 18.46 1.625 61.651 3.105 79.163 4.547 0 0-15.158-44.131-12.020-65.912 1.973-14.275 6.069-28.663 14.768-41.42 26.939-39.307 80.685-49.377 119.954-22.42 14.064 9.592 83.963 57.396 97.116 66.419 18.502 12.753 24.257 37.179 14.167 56.71z" />
<glyph unicode="&#xe604;" d="M666.937 591.085h78.744c15.569 0 28.217-12.629 28.217-28.198v-60.691c0-15.597-12.648-28.207-28.217-28.207h-78.744c-15.569 0-28.207 12.62-28.207 28.207v60.691c0 15.569 12.639 28.198 28.207 28.198v0zM858.785 591.085h78.725c15.597 0 28.207-12.629 28.207-28.198v-60.691c0-15.597-12.61-28.207-28.207-28.207h-78.725c-15.588 0-28.207 12.62-28.207 28.207v60.691c0.009 15.569 12.629 28.198 28.207 28.198v0zM471.192 591.085h78.763c15.569 0 28.188-12.629 28.188-28.198v-60.691c0-15.597-12.62-28.207-28.188-28.207h-78.763c-15.54 0-28.169 12.62-28.169 28.207v60.691c-0.028 15.569 12.601 28.198 28.169 28.198v0zM83.608 591.085h78.744c15.569 0 28.198-12.629 28.198-28.198v-60.691c0-15.597-12.629-28.207-28.198-28.207h-78.744c-15.569 0-28.207 12.62-28.207 28.207v60.691c0.009 15.569 12.648 28.198 28.207 28.198v0zM279.808 591.085h78.744c15.569 0 28.207-12.629 28.207-28.198v-60.691c0-15.597-12.639-28.207-28.207-28.207h-78.744c-15.569 0-28.198 12.62-28.198 28.207v60.691c0 15.569 12.629 28.198 28.198 28.198v0zM669.127 230.684h78.744c15.569 0 28.207-12.62 28.207-28.217v-60.672c0-15.569-12.639-28.217-28.207-28.217h-78.744c-15.569 0-28.188 12.648-28.188 28.217v60.672c0.009 15.569 12.629 28.217 28.188 28.217v0zM860.985 230.684h78.725c15.597 0 28.207-12.62 28.207-28.217v-60.672c0-15.569-12.61-28.217-28.207-28.217h-78.725c-15.597 0-28.207 12.648-28.207 28.217v60.672c0 15.569 12.61 28.217 28.207 28.217v0zM473.41 230.684h78.744c15.569 0 28.188-12.62 28.188-28.217v-60.672c0-15.569-12.62-28.217-28.188-28.217h-78.744c-15.597 0-28.179 12.648-28.179 28.217v60.672c-0.028 15.569 12.582 28.217 28.179 28.217v0zM85.807 230.684h78.744c15.569 0 28.207-12.62 28.207-28.217v-60.672c0-15.569-12.639-28.217-28.207-28.217h-78.744c-15.569 0-28.188 12.648-28.188 28.217v60.672c0 15.569 12.62 28.217 28.188 28.217v0zM282.008 230.684h78.734c15.578 0 28.207-12.62 28.207-28.217v-60.672c0-15.569-12.629-28.217-28.207-28.217h-78.734c-15.578 0-28.207 12.648-28.207 28.217v60.672c0.009 15.569 12.629 28.217 28.207 28.217v0zM763.202 409.306h78.744c15.569 0 28.207-12.601 28.207-28.169v-60.691c0-15.597-12.639-28.198-28.207-28.198h-78.744c-15.569 0-28.207 12.601-28.207 28.198v60.691c0.009 15.569 12.648 28.169 28.207 28.169v0zM567.457 409.306h78.772c15.569 0 28.188-12.601 28.188-28.169v-60.691c0-15.597-12.62-28.198-28.188-28.198h-78.772c-15.569 0-28.179 12.601-28.179 28.198v60.691c-0.028 15.569 12.61 28.169 28.179 28.169v0zM179.883 409.306h78.744c15.569 0 28.188-12.601 28.188-28.169v-60.691c0-15.597-12.629-28.198-28.188-28.198h-78.744c-15.569 0-28.207 12.601-28.207 28.198v60.691c0 15.569 12.639 28.169 28.207 28.169v0zM376.073 409.306h78.744c15.569 0 28.207-12.601 28.207-28.169v-60.691c0-15.597-12.639-28.198-28.207-28.198h-78.744c-15.569 0-28.188 12.601-28.188 28.198v60.691c-0.009 15.569 12.62 28.169 28.188 28.169v0zM183.457 59.525h655.379c15.578 0 28.188-12.591 28.188-28.188v-59.733c0-15.588-12.61-28.179-28.188-28.179h-655.379c-15.569 0-28.207 12.591-28.207 28.179v59.733c0 15.588 12.648 28.188 28.207 28.188v0zM934.372 755.361c-4.466 40.059-71.064 185.752-414.398 189.971-361.643 4.494-437.732-149.912-436.907-190.417h238.867c0 33.327 36.305 40.040 111.17 47.663 49.56 5.044 110.886 6.495 171.88 0 42.761-4.58 84.518-12.553 84.518-47.464l244.869 0.247zM82.65 668.966c0-15.417 12.572-26.491 26.662-26.491l0.133-0.114c0 0 186.159 0.114 186.311 0.114 14.763 0 26.406 11.975 26.406 26.52v67.679l-239.493-0.028c0 0-0.104-67.489-0.047-67.556l0.028-0.123zM689.531 668.994c0-15.417 12.563-26.491 26.662-26.491l0.104-0.142c0 0 191.564 0.142 191.678 0.142 14.782 0 26.425 11.956 26.425 26.491v67.679h-244.869c0 0-0.104-67.518-0.057-67.575l0.057-0.104z" />
<glyph unicode="&#xe605;" d="M50.938 891.14c-1.749 3.18-0.599 7.163 2.586 8.875l47.515 25.89c3.161 1.749 7.112 0.594 8.861-2.623l19.059-34.765c72.040 21.593 151.875-9.118 189.365-77.773l-92.085-50.274c15.215-27.844 4.928-62.819-22.972-78.086-27.957-15.196-62.889-4.924-78.156 22.921l-92.109-50.204c-37.523 68.617-20.284 152.366 36.958 201.246l-19.021 34.793zM699.701 264.872h309.903v-320.348h-309.903v320.348zM664.169 104.75h-250.291c-43.625 0-79.129 35.415-79.129 79.068 0 43.709 35.499 79.063 79.129 79.063h250.291v-158.131zM124.549 40.602c0 17.679 14.317 32.029 32.020 32.029h507.6v-128.103h-539.62v96.074zM317.029 200.201c0-52.72-42.83-95.452-95.606-95.452-52.808 0-95.611 42.732-95.611 95.452 0 52.692 42.798 95.414 95.611 95.414 52.785 0 95.606-42.727 95.606-95.414zM839.577 467.512l-53.781 153.1c-10.427 28.859-30.458 51.392-87.012 51.392h-248.257c-56.526 0-76.585-22.533-86.979-51.392l-53.767-153.1c-4.017-9.889-6.102-32.109 15.781-46.992l126.424-83.29c18.427-12.19 43.326-7.089 55.502 11.315 12.176 18.404 7.093 43.331-11.409 55.488l-100.333 66.135 28.247 77.908h39.094l-22.902-63.207 76.169-50.204c17.099-11.287 28.822-28.546 32.908-48.628 4.161-20.092 0.21-40.605-11.077-57.723-4.517-6.822-10.067-12.606-16.262-17.572h105.477c-6.186 4.966-11.708 10.764-16.276 17.572-11.283 17.118-15.234 37.631-11.105 57.723 4.124 20.083 15.842 37.346 32.927 48.628l76.216 50.204-22.986 63.207h39.127l28.303-77.908-100.38-66.135c-18.451-12.162-23.599-37.079-11.39-55.488s37.070-23.505 55.52-11.315l126.392 83.29c21.892 14.888 19.83 37.107 15.832 46.992zM599.377 821.858c-5.99-12.961-19.091-21.976-34.311-21.976-15.262 0-28.368 9.015-34.381 21.976h-69.249c-1.122-6.079-1.781-12.297-1.781-18.727 0-58.349 47.38-105.654 105.781-105.654 58.447 0 105.795 47.305 105.795 105.654 0 6.429-0.683 12.648-1.767 18.727h-70.086zM528.347 846.804c4.124 16.384 18.956 28.616 36.719 28.616 17.698 0 32.632-12.227 36.649-28.616h60.005c-16.651 36.546-53.44 62.015-96.279 62.015-42.798 0-79.624-25.469-96.27-62.015h59.177z" />
<glyph unicode="&#xe606;" d="M26.37 54.854h179.274v182.46h178.148v183.71h180.934v180.314h179.732v179.102h266.826v-91.378h-177.394v-179.789h-179.932v-182.346h-179.55v-181.382h-180.275v-182.918h-267.761z" horiz-adv-x="1011" />
<glyph unicode="&#xe607;" d="M809.265 54.084c0-26.464-21.438-47.851-47.832-47.851-26.427 0-47.851 21.372-47.851 47.851v41.73h95.664l0.019-41.73zM683.036-59.57h-136.042l0.207 67.142h-45.582l-0.070-67.142h-136.305v155.38h317.792zM333.636 54.084c0-26.464-21.396-47.851-47.865-47.851-26.356 0-47.794 21.372-47.794 47.851v41.73h95.659v-41.73zM523.659 948.736c68.256 0 123.556-55.334 123.556-123.622 0-68.26-55.296-123.589-123.556-123.589-68.303 0-123.632 55.329-123.632 123.589 0 68.284 55.334 123.622 123.632 123.622zM875.154 143.98h-703.046v410.859h703.046v-410.859zM765.337 520.915h-480.754v-343.547h480.749v343.547zM546.994 317.839v-30.156h88.041c3.659 0 9.047-3.288 9.047-8.991 0-51.36-6.431-75.546-33.482-75.546-28.066 0-33.83 60.759-63.605 64.756 0 0 0-45.521 0-58.143h-47.052c0 12.622 0 58.251 0 58.251-31.251-2.372-36.296-64.86-65.451-64.86-27.037 0-32.012 24.186-32.012 75.546 0 5.693 5.392 8.991 9.047 8.991h88.416v30.156h-91.54c-5.327 0-9.554 4.242-9.554 9.512 0 5.256 4.228 9.498 9.554 9.498h91.54v30.156h-103.025c-5.256 0-9.526 4.237-9.526 9.531 0 5.214 4.256 9.521 9.526 9.521h103.029v30.123h-96.707c-5.261 0-9.535 4.237-9.535 9.531 0 5.214 4.274 9.559 9.535 9.559h96.702v30.105h-75.753c-5.289 0-9.531 4.303-9.531 9.498 0 5.327 4.242 9.601 9.531 9.601h75.753v16.656h47.052v-16.656h75.762c5.256 0 9.521-4.274 9.521-9.601 0-5.186-4.26-9.498-9.521-9.498h-75.762v-30.091h96.998c5.294 0 9.554-4.345 9.554-9.559 0-5.294-4.26-9.531-9.554-9.531h-96.998v-30.123h103.339c5.256 0 9.531-4.307 9.531-9.521 0-5.294-4.274-9.531-9.531-9.531h-103.339v-30.156h91.554c5.261 0 9.531-4.242 9.531-9.498 0-5.266-4.27-9.512-9.531-9.512l-91.554-0.019zM667.671 671.298h-283.958c-51.369 0-98.919-27.404-125.642-68.289h531.104c-25.027 40.88-70.149 68.289-121.504 68.289z" />
<glyph unicode="&#xe608;" d="M493.225 652.429c52.088 0 94.274 42.144 94.274 94.095 0 51.975-42.172 94.067-94.274 94.067-52.078 0-94.283-42.106-94.283-94.067 0.019-51.952 42.219-94.095 94.283-94.095zM780.485 16.328c0 0-732.888 0-751.588 0-21.161 0-18.991-16.642-18.991-16.642v-27.695c0 0-1.926-35.986 35.037-35.986 28.226 0 941.070 0 941.070 0 37.202 0 35.187 35.145 35.187 35.145v76.697c0 0-3.147 24.257-31.688 24.257h-91.714c-31.434 0-57.424-55.775-117.314-55.775zM853.57 186.265c0-46.747 38.043-84.724 84.922-84.724 46.869 0 85.006 37.977 85.006 84.724 0 46.921-38.146 84.757-85.006 84.757-46.883 0.014-84.922-37.822-84.922-84.757zM575.958 347.92c-5.613-16.849-18.347-31.086-36.296-37.756l-75.635-28.047 27.902-27.695h127.685l-0.075 195.438-42.736-100.756c-0.211-0.479-0.597-0.752-0.846-1.184zM759.329 207.98h-264.004l-63.643 62.14-44.304-16.328c-32.871-11.753-72.873 6.186-85.217 38.851-7.271 20.278-6.261 42.905 5.872 59.411-5.421 0.244-160.115 0-160.115 0-25.732 0-46.644-20.705-46.644-46.371 0-25.713 20.912-45.808 46.644-45.808h157.494l62.455-94.537-322.419-25.901c-20.63-4.758-36.051-23.223-36.051-45.319 0-25.736 20.799-46.615 46.465-46.615l361.74-0.047c-6.266 10.174-10.071 22.025-10.071 34.825 0 36.836 29.94 66.767 66.762 66.767h144.741l117.3 24.501 6.515-31.157-120.522-25.173h-148.029c-19.296 0-34.938-15.632-34.938-34.938 0-19.024 15.247-34.436 34.234-34.825l286.372-0.038c44.319 0.362 79.867 36.051 79.867 80.215-0.014 44.333-35.882 80.346-80.501 80.346zM381.792 282.958c-18.681-8.136-40.453 0.324-48.612 18.958-8.22 18.709 0.282 40.457 18.986 48.635l134.416 50.463 41.542 99.065-27.066 10.005-35.319-84.837-102.315-37.686v103.711l-100.018-109.239-113.19 0.108c0 0 198.064 217.116 204.255 223.617 8.215 8.145 26.981 21.645 62.375 21.645h127.183c72.248 0 86.166-72.037 71.37-109.314l-66.518-161.313c-4.091-9.268-11.785-16.718-21.401-20.175l-145.69-53.643z" horiz-adv-x="1029" />
<glyph unicode="&#xe609;" d="M660.682 452.913h-35.723l-37.625-68.162-49.443 90.455c24.773 16.046 38.048 44.272 38.048 80.464 0 55.052-27.113 93.842-88.834 93.842h-102.132v-322.231h51.477v133.143h45.136c3.772 0 6.994 0.578 10.564 0.869l68.533-124.801-56.832-102.921h36.004l38.738 70.322 38.635-70.313h52.778l-64.822 118.573 55.498 100.761zM473.003 499.256h-36.554v111.47h33.022c41.059 0 55.014-21.236 55.014-55.958 0-40.622-23.904-55.512-51.482-55.512zM294.874-29.766c0-18.841 15.787-34.234 35.258-34.234h386.654c19.503 0 35.187 15.393 35.187 34.234v779.513h-457.099v-779.513zM340.226 698.988h366.756v-504.724h-366.756v504.724zM272.487 782.956h501.802c10.202 0 18.385 8.004 18.385 17.953v130.071c0 9.921-8.183 17.887-18.385 17.887h-501.802c-10.132 0-18.423-7.971-18.423-17.887v-130.071c0-9.949 8.3-17.953 18.423-17.953zM727.134 925.499h24.801v-118.751h-24.801v118.751zM671.753 925.499h24.708v-118.751h-24.708v118.751zM616.237 925.499h24.839v-118.751h-24.839v118.751z" horiz-adv-x="1029" />
<glyph unicode="&#xe60a;" d="M429.483 711.671c13.871 0 25.149 11.208 25.149 25.149 0 13.833-11.273 25.107-25.149 25.107-13.871 0-25.144-11.273-25.144-25.107 0-13.941 11.273-25.149 25.144-25.149zM470.918 620.722c-17.056 0-26.295 17.333-26.366 17.516-3.922 7.492-13.166 10.4-20.626 6.478-7.426-3.856-10.4-13.025-6.595-20.527 0.667-1.329 17.582-34.107 53.586-34.107 14.111 0 25.84 3.011 35.258 8.718 9-6.2 20.63-9.568 34.882-9.568 32.965 0 48.504 34.29 49.185 35.76 0.869 1.996 1.329 4.063 1.329 6.13 0 5.876-3.429 11.489-9.080 13.974-3.706 1.682-7.877 1.855-11.691 0.38-3.824-1.395-6.863-4.35-8.554-8.098-0.033-0.132-8.23-17.544-21.189-17.544-11.452 0-16.53 2.908-18.667 4.763 0 3.152 0 19.367 0 25.877 10.263 1.959 18.296 11.067 18.296 22.101 0 12.744-10.334 23.571-22.495 23.571l-21.316-0.178c-12.885 0-23.359-10.541-23.359-23.392 0-11.067 7.774-20.452 18.249-22.833 0-6.163 0-20.522 0-24.092-2.743-1.992-8.836-4.927-20.846-4.927zM321.691 947.115c77.547 3.781 92.418-53.614 92.418-53.614s35.976 21.993 92.141 21.993c56.151 0 92.071-21.993 92.071-21.993s14.918 57.396 92.461 53.614c45.188-2.17 82.056-39.922 82.056-85.166 0-42.374-27.878-99.248-73.343-100.686l-5.773-0.174c1.292-7.703 1.785-29.17 1.785-34.844 0-104.396-84.931-189.388-189.252-189.388-104.359 0-189.29 84.992-189.29 189.388 0 5.674 0.456 27.141 1.832 34.844l-5.857 0.174c-45.418 1.437-73.263 58.312-73.263 100.686-0.005 45.244 36.841 82.996 82.014 85.166zM403.677 290.191v74.987h66.297v66.292h74.907v-66.292h66.367v-74.996h-66.367v-66.292h-74.902v66.292l-66.302 0.009zM162.454 299.342c-3.363 84.438 41.674 154.511 86.119 211.945l6.116 8.159c14.576 19.752 24.163 32.81 68.5 29.734 33.947-2.419 68.228-27.737 68.228-71.581 0-0.103 0-0.207 0-0.348-0.127-26.37-17.366-50.044-35.582-75.015-22.166-30.363-47.268-64.723-47.268-111.466 0-13.378 2.931-23.759 5.815-33.656 2.767-9.78 5.392-18.953 5.392-30.781 0-40.274-34.041-73.061-75.851-73.061-50.237-0.009-77.622 49.166-81.469 146.070zM383.399-51.045c-55.512 0-100.686 45.108-100.686 100.615 0 55.503 45.178 100.61 100.686 100.61 55.47 0 100.61-45.108 100.61-100.61 0-55.512-45.136-100.615-100.61-100.615zM630.784-51.045c-55.493 0-100.686 45.108-100.686 100.615 0 55.503 45.188 100.61 100.686 100.61 55.512 0 100.7-45.108 100.7-100.61 0-55.512-45.188-100.615-100.7-100.615zM768.521 153.262c-41.81 0-75.851 32.773-75.851 73.056 0 11.828 2.621 21.015 5.392 30.786 2.894 9.897 5.81 20.273 5.81 33.656 0 46.742-25.074 81.112-47.25 111.47-18.244 25.003-35.441 48.631-35.582 75.001 0 0.141 0 0.244 0 0.357 0 43.844 34.252 69.172 68.228 71.586 44.262 3.081 53.906-9.982 68.462-29.738l6.163-8.159c44.459-57.438 89.375-127.507 86.119-211.94-3.88-96.9-31.302-146.075-81.493-146.075zM583.332 711.671c13.904 0 25.182 11.208 25.182 25.149 0 13.833-11.278 25.107-25.182 25.107-13.833 0-25.111-11.273-25.111-25.107 0-13.941 11.273-25.149 25.111-25.149z" horiz-adv-x="1019" />
<glyph unicode="&#xe60b;" d="M617.205 112.563l-232.523 134.252 23.038 39.852 232.495-134.214zM854.498 36.090c67.238 63.39 109.75 152.539 109.75 251.974 0 122.595-64.33 233.079-164.429 295.164l112.088 194.12-17.623 10.212 27.727 48.011-72.48 41.853-27.718-47.969-18.605 10.698-275.629-477.497 24.122-13.929-34.189-59.191 60.477-34.891 34.194 59.121 24.057-13.92 115.894 200.798c71.152-45.28 116.671-124.643 116.671-212.585 0-138.974-113.070-251.974-252.044-251.974-92.992 0-203.121 0-203.121 0v-95.41h571.729v95.405c-0.009 0.009-84.618 0.009-130.871 0.009zM260.32 941.517c-128.893 0-233.781-104.902-233.781-233.739 0-128.912 104.888-233.776 233.781-233.776 128.856 0 233.706 104.864 233.706 233.776 0 128.846-104.85 233.739-233.706 233.739zM260.32 495.646c-116.956 0-212.174 95.176-212.174 212.136 0 116.923 95.218 212.132 212.169 212.132 116.9 0 212.099-95.209 212.099-212.132 0.005-116.965-95.195-212.136-212.094-212.136zM139.32 723.166c10.263 0 34.666 0 44.878 0 0 10.315 0 35.204 0 45.519-10.212 0-34.615 0-44.878 0 0-10.315 0-35.209 0-45.519zM260.517 891.687c-101.46 0-183.988-82.579-183.988-184.044 0-101.437 82.528-183.913 183.988-183.913 101.409 0 183.918 82.476 183.918 183.913 0 101.465-82.514 184.044-183.918 184.044zM123.521 707.184v77.441h76.884v-77.441h-76.884zM202.705 565.615c-21.027 0-38.108 17.057-38.108 38.112 0 21.116 17.071 38.187 38.108 38.187 21.008 0 38.075-17.067 38.075-38.187 0-21.055-17.062-38.112-38.075-38.112zM248.818 650.303c-21.041 0-38.145 17.062-38.145 38.108 0 21.050 17.095 38.145 38.145 38.145 21.013 0 38.075-17.095 38.075-38.145 0-21.046-17.062-38.108-38.075-38.108zM275.531 794.692c-22.149 0-40.128 18.049-40.128 40.179 0 22.238 17.978 40.137 40.128 40.137 22.163 0 40.118-17.899 40.118-40.137 0-22.126-17.955-40.179-40.118-40.179zM342.114 590.228c-21.135 0-38.178 17.057-38.178 38.145 0 21.060 17.039 38.117 38.178 38.117 21.004 0 38.075-17.057 38.075-38.117 0.005-21.088-17.062-38.145-38.075-38.145zM350.194 702.256c-21.046 0-38.108 17.095-38.108 38.145 0 21.083 17.053 38.145 38.108 38.145 21.083 0 38.169-17.057 38.169-38.145-0.014-21.050-17.090-38.145-38.169-38.145z" horiz-adv-x="1015" />
<glyph unicode="&#xe60c;" d="M478.484 782.759c45.93-3.596 86.194 30.697 89.85 76.622 3.563 45.996-30.823 86.231-76.73 89.86-45.93 3.628-86.161-30.697-89.822-76.664-3.591-46.001 30.669-86.156 76.702-89.817zM501.381 615.375c26.049-4.886 45.626-27.896 45.626-55.422 0-31.174-25.273-56.446-56.446-56.446h-182.908c-19.774 0-35.826 16.038-35.826 35.826 0 4.816 0.949 9.398 2.642 13.588l19.774 46.159 220.254 157.766h-104.948c-40.301 1.113-68.622-12.882-84.87-44.626-11.012-21.368-69.468-151.968-69.468-151.968-2.567-6.467-3.993-13.522-3.993-20.92 0-31.174 25.259-56.446 56.446-56.446h71.437l-21.079-138.553-110.877-320.423c-9.328-28.429 6.107-58.737 34.292-68.15 28.223-9.431 58.822 6.041 68.15 34.33l127.504 361.439c24.861-40.404 74.355-112.822 82.766-126.494 1.936-22.734 19.746-223.171 19.746-223.171 2.712-29.79 28.901-51.499 58.513-48.942 29.649 2.53 51.593 28.854 48.951 58.504l-20.962 235.885c-0.711 8.379-3.423 16.454-7.841 23.543l-91.66 148.559 14.598 186.443c0 0 21.71-73.779 23.328-79.105 4.657-15.229 15.159-26.161 25.927-34.872 6.308-5.022 113.295-77.843 113.295-77.843 5.952-2.754 10.81-5.162 17.198-5.602 20.69-1.697 38.87 13.77 40.535 34.531 1.019 13.298-4.919 25.408-14.719 32.974 0 0-106.613 73.2-110.952 76.389-3.53 2.679-6.312 7.327-7.023 9.768l-42.194 151.963c-6.864 22.996-30.033 42.774-59.327 42.774h-12.62l-53.267-141.457zM490.557 524.136c19.774 0 35.826 16.033 35.826 35.821 0 18.465-14.055 33.493-31.987 35.429l-26.166-71.47 22.327 0.22z" />
<glyph unicode="&#xe60d;" d="M791.618 266.681v-324.551h-407.991v117.062h-59.93c-83.227 0-150.759 67.49-150.759 150.83v106.869h-51.261c-17.026 0-30.923 13.864-30.923 30.829 0 4.285 0.764 8.352 2.298 11.986l79.886 201.162c0 0 8.258 83.331 15.775 115.235 33.259 143.53 193.272 273.776 366.762 273.776 211.071 0 382.263-171.206 382.263-382.466 0.005-122.002-57.146-230.735-146.121-300.73zM266.858 569.993c-23.396 0-42.513-19.083-42.513-42.593 0-23.656 19.116-42.772 42.513-42.772 23.618 0 42.838 19.116 42.838 42.772-0.005 23.505-19.225 42.593-42.838 42.593zM637.249 662.795c0-22.32 18.073-40.323 40.252-40.323 22.25 0 40.252 17.998 40.252 40.323 0 22.368-18.003 40.37-40.252 40.37-22.179 0-40.252-18.003-40.252-40.37zM332.984 706.51c0-22.287 18.073-40.337 40.398-40.337 22.358 0 40.398 18.054 40.398 40.337 0 22.358-18.040 40.431-40.398 40.431-22.311-0.005-40.398-18.078-40.398-40.431zM810.838 617.979l58.505 10.061v56.32l-56.372 9.716c-2.652 10.207-6.522 20.022-11.354 29.323l34.165 48.51-39.629 39.78-46.835-32.985c-6.97 4.077-14.312 7.739-22.155 10.632-2.194 0.802-4.384 1.392-6.578 2.057l-10.207 58.472h-56.311l-9.509-56.315c-10.278-2.647-20.136-6.512-29.493-11.396l-48.444 34.24-39.945-39.851 33.188-46.632c-4.148-7.036-7.8-14.449-10.693-22.358-0.845-2.194-1.397-4.389-2.095-6.578l-48.336-8.291v26.851l-36.916 6.337c-1.67 6.441-4.181 12.571-7.239 18.456l22.627 31.971-26.152 26.091-30.786-21.707c-4.492 2.61-9.126 5.054-14.176 6.937-1.288 0.486-2.647 0.59-3.969 1.010l-6.687 38.511h-36.746l-6.437-36.954c-6.479-1.704-12.642-4.247-18.564-7.324l-32.037 22.537-26.015-26.091 21.768-30.786c-2.614-4.459-5.054-9.089-6.894-14.138-0.491-1.326-0.802-2.647-1.217-4.011l-38.308-6.578v-36.949l37.161-6.375c1.699-6.347 4.039-12.51 7.036-18.361l-22.604-32.004 26.048-26.124 30.89 21.764c4.492-2.647 9.159-5.082 14.209-6.97 1.288-0.491 2.647-0.595 3.936-1.043l6.687-38.516 36.732 0.033 6.441 36.916c6.441 1.704 12.571 4.214 18.493 7.281l31.9-22.5 26.147 26.086-21.731 30.786c2.614 4.459 5.021 9.051 6.861 14.067 0.524 1.326 0.628 2.718 1.081 4.077l28.346 4.889v-46.222l56.278-9.683c2.652-10.278 6.522-20.131 11.424-29.493l-34.165-48.34 39.709-39.818 46.802 32.985c6.998-4.077 14.308-7.697 22.179-10.584 2.194-0.84 4.389-1.387 6.583-2.090l10.202-58.514h48.869l-4.039-23.434c-7.064-1.604-13.718-4.384-19.985-7.904l-23.363 16.507-18.319-18.328 15.813-22.391c-2.718-4.318-5.087-8.919-6.899-13.864-0.727-1.987-1.010-3.969-1.567-5.955l-28.351-4.842v-25.845l27.129-4.7c1.567-7.102 4.346-13.751 7.904-20.060l-16.507-23.33 18.248-18.39 22.391 15.879c4.323-2.751 8.947-5.115 13.925-6.965 1.982-0.731 4.006-1.015 6.026-1.571l4.662-28.21h25.944l4.733 27.025c7.107 1.571 13.756 4.351 20.060 7.904l23.231-16.497 18.385 18.352-15.808 22.254c2.789 4.346 5.191 8.985 7.036 13.996 0.694 1.949 0.972 3.936 1.529 5.917l28.106 4.842v25.944l-26.987 4.629c-1.567 7.069-4.351 13.756-7.904 20.022l16.464 23.368-18.347 18.323-22.358-15.709c-4.28 2.723-8.881 5.087-13.864 6.937-1.911 0.694-3.86 0.977-5.814 1.496l-4.945 28.21h-18.526l8.947 52.767c10.24 2.61 20.060 6.479 29.394 11.349l48.506-34.236 39.766 39.78-33.051 46.802c4.105 7.003 7.767 14.35 10.693 22.217 0.816 2.204 1.378 4.403 2.072 6.597zM668.035 372.479c0-22.32 18.144-40.365 40.427-40.365 22.179 0 40.191 18.040 40.191 40.365 0 22.292-18.003 40.332-40.191 40.332-22.287 0-40.427-18.040-40.427-40.332z" />
<glyph unicode="&#xe60e;" d="M49.503 864.632v-211.477h-31.646c-5.98 0-10.848 4.816-10.848 10.848v272.898c0 9.235 6.883 16.758 16.342 16.758h139.825c9.426 0 16.347-7.495 16.347-16.721v-16.029h216.186c6.013 0 10.848-4.849 10.848-10.81v-61.375h-184.549v16.071c0 9.216-6.883 16.721-16.375 16.721h-139.76c-9.487-0.009-16.37-7.622-16.37-16.884zM491.557 525.081c0-5.999-4.835-10.81-10.848-10.81h-377.842c-6.013 0-10.843 4.816-10.843 10.81v272.917c0 9.235 6.883 16.753 16.328 16.753h139.797c9.464 0 16.379-7.495 16.379-16.721v-16.024h216.176c6.013 0 10.848-4.853 10.848-10.81v-246.115h0.005zM323.981 680.443v64.376h-64.39v-64.376h-64.395v-64.39h64.395v-64.376h64.39v64.376h64.358v64.39h-64.358zM568.783 784.354v-824.086h452.907v824.086h-452.907zM993.285 76.849h-396.194v311.259h396.194v-311.259zM993.285 443.969h-396.194v311.212h396.194v-311.212zM964.533 728.646h-339.023v-258.296h339.023v258.296zM850.219 642.060h-111.639c-8.688 0-15.711 7.009-15.711 15.734 0 8.674 7.028 15.729 15.711 15.729h111.639c8.725 0 15.743-7.056 15.743-15.729 0.005-8.725-7.018-15.734-15.743-15.734zM964.739 361.638h-338.981v-258.24h338.981v258.24zM850.219 274.977h-111.639c-8.688 0-15.711 7.046-15.711 15.692 0 8.734 7.028 15.785 15.711 15.785h111.639c8.725 0 15.743-7.051 15.743-15.785 0.005-8.646-7.018-15.692-15.743-15.692z" horiz-adv-x="1029" />
<glyph unicode="&#xe60f;" d="M241.776 827.32v106.795h-106.795v-106.795h-106.795v-106.8h106.795v-106.786h106.795v106.786h106.795v106.8zM578.817 495.81c73.681 0 133.457 59.832 133.457 133.485 0 73.747-59.775 133.438-133.457 133.438-73.681 0-133.452-59.691-133.452-133.438 0-73.653 59.771-133.485 133.452-133.485zM369.776-56.35v118.433l-118.77-33.049c-8.716-3.469-18.189-5.401-28.078-5.401-41.993 0-76.043 34.138-76.043 76.080 0 15.785 4.793 30.435 12.975 42.55l190.511 261.232c20.686 28.326 49.563 59.892 110.475 59.892h230.316c60.884 0 89.789-31.566 110.442-59.892l190.506-261.232c8.197-12.115 13.013-26.764 13.013-42.55 0-41.947-34.082-76.080-76.043-76.080-9.889 0-19.4 1.931-28.078 5.401l-118.803 33.049v-118.433h-412.424zM576.002 26.383v0l153.899 50.924-3.469 0.959c-106.173 31.253-64.835 171.541 41.334 140.213l14.509-4.877v158.43l-206.268-67.388-206.259 67.388v-158.43l14.439 4.877c106.248 31.323 147.578-108.96 41.339-140.213l-3.404-0.959 153.881-50.924z" />
<glyph unicode="&#xe610;" d="M456.901 365.131c-37.362 0-67.589-30.433-67.589-68.087 0-37.564 30.227-68.119 67.589-68.119 37.301 0 67.495 30.556 67.495 68.119-0.009 37.653-30.199 68.087-67.495 68.087zM611.849 365.131c-37.334 0-67.565-30.433-67.565-68.087 0-37.564 30.236-68.119 67.565-68.119 37.324 0 67.509 30.556 67.509 68.119 0 37.653-30.185 68.087-67.509 68.087zM327.727 338.239l-46.93-163.943h45.357l45.775 163.943zM10.691 419.92v-245.624h154.525l74.052 245.624zM527.975 562.364c83.292 0 128.573 58.063 128.573 129.696 0 71.586-57.499 129.574-128.573 129.574-70.999 0-128.587-57.988-128.587-129.574 0-71.633 57.593-129.696 128.587-129.696zM698.965 366.907c-3.471-9.676-4.397-21.847 2.325-45.54l41.608-147.071h184.325v-233.486h82.686v1007.578h-82.686v-528.469h-201.216l-27.042-53.013zM259.786-59.19h549.334l-66.212 233.486h-417.139zM857.567 684.657l-54.075 220.31c-7.323 29.823-37.287 48.048-66.781 40.65-29.616-7.398-47.649-37.526-40.359-67.349l48.795-198.741-85.626-151.265h-250.885c-89.6 0-150.664-63.883-166.63-100.756l-2.738-7.591h486.748l125.938 223.786c6.99 12.405 9.019 27.080 5.613 40.955zM170.952-60.538c-5.125 0-10.32 0.728-15.482 2.194-29.259 8.634-46.042 39.494-37.554 69.007l47.306 163.633h115.58l-56.926-194.767c-7.008-24.308-29.048-40.068-52.924-40.068v0z" />
<glyph unicode="&#xe611;" d="M605.635 134.863l-247.428 142.9 24.52 42.411 247.376-142.9zM858.098 53.511c71.464 67.481 116.741 162.299 116.741 268.128 0 130.391-68.476 247.991-174.963 314.039l119.291 206.5-18.733 10.794 29.424 51.167-77.143 44.535-29.494-51.087-19.724 11.386-293.282-508.031 25.619-14.778-36.375-62.906 64.446-37.216 36.38 62.938 25.577-14.782 123.322 213.579c75.612-48.208 124.139-132.669 124.139-226.14 0-147.841-120.353-268.124-268.208-268.124-98.994 0-216.097 0-216.097 0v-101.526h608.294v101.526c-0.005-0.005-90.065-0.005-139.212-0.005zM318.135 834.165v80.586h9.916l-0.146 19.324h-90.389l0.141-19.324h10.649v-80.586h-67.443v80.586h9.883l-0.108 19.324h-90.469l0.183-19.324h10.649v-80.586h-99.027v-403.7h404.306v403.7h-98.144zM382.060 464.647h-335.872v335.337h64.808v-257.916c0-19.517 15.957-35.37 35.206-35.37 19.282 0.075 34.656 15.881 34.656 35.37v257.916h67.443v-257.916c0-19.517 15.961-35.37 35.211-35.37 19.282 0.075 34.652 15.881 34.619 35.37v257.916h63.925v-335.337h0.005z" />
<glyph unicode="&#xe612;" d="M513.86 706.997c-70.91 0-128.493 57.090-128.493 127.479 0 70.365 57.579 127.422 128.493 127.422 70.924 0 128.474-57.048 128.474-127.422 0-70.388-57.546-127.479-128.474-127.479zM861.649 112.814c-28.775-8.248-58.194 6.229-65.747 32.599l-98.374 343.411-47.973 0.070 157.193-547.939h-585.794l157.236 547.939-48.048-0.070-98.332-343.411c-7.563-26.375-37.010-40.847-65.719-32.599-28.78 8.253-46.958 33.393-37.301 66.316l101.174 352.345c40.415 140.809 158.297 136.417 158.297 136.417h251.209c0 0 117.849 4.397 158.316-136.417l101.141-352.345c9.681-32.923-8.516-58.067-37.277-66.316zM513.898 353.365c-104.937 0-189.98-84.983-189.98-189.938 0-104.875 85.039-189.947 189.98-189.947 104.833 0 189.882 85.058 189.882 189.947 0 104.955-85.030 189.938-189.882 189.938zM554.726 209.666c-22.819 10.743-32.524 37.944-21.72 60.778 10.794 22.721 38.005 32.449 60.759 21.668 22.796-10.818 32.449-38.024 21.687-60.815-10.818-22.721-37.973-32.453-60.726-21.631zM597.236 146.098c-4.5-9.55-28.526-60.195-33.407-70.365-13.481-28.465-47.56-40.626-76.086-27.164-9.244 4.453-16.342 11.283-22.288 18.78-9.023 11.4-15.078 41.787-15.078 41.787-9.479-6.689-33.717-21.96-43.741-29.085-9.122-6.365-21.729-4.199-28.155 4.923-6.478 9.122-4.232 21.706 4.829 28.146 14.435 10.094 54.45 37.301 54.45 37.301 12.175 8.54 28.944 5.759 37.489-6.478l16.99-34.515 27.009 54.591-23.599 6.91c-5.19 1.48-9.46 5.064-11.978 9.841l-23.153 44.464c-5.026 9.629-1.301 21.527 8.375 26.521 9.606 5.059 21.485 1.268 26.535-8.319 0 0 13.927-26.774 19.282-37.089 12.72-3.734 64.446-18.775 64.446-18.775 2.8-0.874 5.153-2.457 7.276-4.307 12.288-7.826 17.187-23.669 10.804-37.165z" />
<glyph unicode="&#xe613;" d="M531.334 551.302c30.471 9.742 63.004-7.046 72.774-37.554 9.747-30.396-7.065-63.009-37.54-72.789l-157.409-50.298c-18.221-5.843-38.198-2.25-53.295 9.559l-65.109 50.937 141.368-508.43h-411.845v645.947c0 38.156 30.96 69.078 69.106 69.078h102.959c14.693 0 28.221-4.683 39.354-13.382 0 0 134.318-105.059 171.384-134.069l128.254 41.002zM279.773 356.516h-62.464v62.549h-74.55v-62.544h-62.248v-74.775h62.243v-62.22h74.55v62.22h62.464v74.771zM154.488 688.781c68.631 0 124.275 55.62 124.275 124.322 0 68.594-55.639 124.289-124.275 124.289-68.66 0-124.308-55.695-124.308-124.289-0.005-68.693 55.639-124.322 124.308-124.322zM885.92 688.335c68.688 0 124.458 55.733 124.458 124.435 0 68.815-55.77 124.585-124.458 124.585-68.782 0-124.501-55.77-124.501-124.585 0-68.702 55.719-124.435 124.501-124.435zM848.323 654.904c-50.937 0-74.043-17.431-93.391-47.597l-12.518-24.064-72.746 21.25 3.072 19.832-173.718 38.907-4.871-21.668-32.496 7.234 4.833 21.734-13.044 2.884-14.918-66.565 12.969-2.884 4.979 21.734 32.496-7.271-4.871-21.772 173.756-38.907 5.618 20.391 70.388-11.32-181.356-348.794c-14.017-28.033-2.659-62.060 25.412-76.114 28.024-14.054 62.093-2.659 76.227 25.375l151.289 293.616h24.82v-518.177h178.359v712.178h-160.289z" />
<glyph unicode="&#xe614;" d="M881.669 85.697c26.366 32.209 35.605 77.016 20.264 118.981l-13.894 38.367h84.292v710.623h-914.254v-710.623h491.656l53.628-147.127c15.228-41.899 51.144-70.36 92.019-78.021l25.201-76.274 210.967-0.038-49.88 144.112zM804.972 469.626c-45.051-16.384-68.321-66.297-51.9-111.405l32.514-88.703h-701.050v657.652h861.372v-657.657h-67.659l-73.277 200.112zM554.566 547.3v-50.716h148.208c6.191 0 15.224-5.533 15.224-15.228 0-86.354-10.855-127.164-56.358-127.164-47.287 0-56.982 102.386-107.074 109.070v-97.867h-79.252v98.003c-52.609-3.955-61.078-109.206-110.188-109.206-45.502 0-53.901 40.81-53.901 127.164 0 9.7 9.028 15.228 15.261 15.228h148.837v50.716h-154.126c-8.892 0-16.102 7.177-16.102 16.036 0 8.854 7.21 15.999 16.102 15.999h154.121v50.754h-173.474c-8.821 0-15.999 7.177-15.999 16.065 0 8.821 7.177 16.036 15.999 16.036h173.479v50.726h-162.839c-8.821 0-15.999 7.173-15.999 16.069 0 8.854 7.177 16.065 15.999 16.065h162.839v50.716h-127.516c-8.925 0-16.065 7.177-16.065 16.036 0 8.864 7.14 16.102 16.065 16.102h127.516v28.038h79.247v-28.038h127.521c8.85 0 16.060-7.248 16.060-16.102s-7.21-16.036-16.060-16.036h-127.521v-50.716h163.295c8.854 0 16.065-7.21 16.065-16.065 0-8.897-7.21-16.069-16.065-16.069h-163.295v-50.726h173.967c8.826 0 16.036-7.21 16.036-16.036 0-8.887-7.21-16.065-16.036-16.065h-173.967v-50.754h154.126c8.882 0 16.060-7.14 16.060-15.999 0-8.859-7.177-16.036-16.060-16.036h-154.131z" />
<glyph unicode="&#xe615;" d="M877.648 88.402c26.215 32.002 35.295 76.542 20.198 118.164l-13.871 38.184h83.658v705.794h-908.072v-705.794h488.345l53.239-146.268c15.125-41.618 50.838-69.848 91.451-77.434l23.439-77.965h215.139l-53.525 145.319zM850.906 334.576l-19.888 54.070-29.456 81.187c-44.887-16.375-68.049-65.921-51.665-110.742l32.298-88.153h-696.456v653.354h855.712v-653.354h-67.175l-23.369 63.638zM349.903 648.117c-16.516-13.768-40.124-20.649-70.797-20.649h-58.767v-101.503h-58.626v282.295h121.217c27.958 0 50.209-7.3 66.837-21.838 16.624-14.571 24.928-37.104 24.928-67.603 0.005-33.36-8.272-56.893-24.792-70.703zM304.875 749.836c-7.473 6.257-17.948 9.39-31.406 9.39h-53.131v-83.146h53.131c13.458 0 23.923 3.41 31.406 10.155 7.478 6.783 11.189 17.493 11.189 32.2 0.009 14.67-3.711 25.135-11.189 31.401zM622.874 758.249h-149.349v-59.951h137.113v-49.030h-137.113v-72.572h156.268v-50.735h-213.922v282.295h207.003v-50.007zM888.663 808.246v-50.002h-84.428v-232.288h-59.392v232.288h-84.842v50.002h228.662z" horiz-adv-x="1038" />
<glyph unicode="&#xe616;" d="M877.072 82.895c26.414 32.277 35.602 77.244 20.349 119.191l-13.962 38.515h84.431v711.975h-916.204v-711.979h492.736l53.683-147.535c15.295-41.984 51.322-70.464 92.249-78.109l23.603-78.647h217.111l-53.996 146.591zM850.102 331.203l-20.026 54.576-29.813 81.897c-45.21-16.562-68.622-66.532-52.065-111.71l32.632-88.948h-702.665v659.105h863.316v-659.105h-67.804l-23.575 64.185zM364.376 809.009h85.628v-284.751h-55.46v192.601c0 5.545 0.070 13.293 0.201 23.295 0.14 9.955 0.178 17.675 0.178 23.075l-53.945-238.975h-57.844l-53.571 238.975c0-5.401 0.070-13.12 0.173-23.075 0.136-10.002 0.21-17.749 0.21-23.295v-192.606h-55.46v284.751h86.605l51.813-223.887 51.471 223.891zM687.553 801.673c10.488-4.526 19.395-11.152 26.657-19.886 6.032-7.224 10.806-15.22 14.345-23.959 3.507-8.767 5.26-18.764 5.26-29.953 0-13.541-3.404-26.834-10.24-39.885-6.813-13.083-18.1-22.341-33.811-27.746 13.148-5.26 22.449-12.765 27.919-22.519 5.475-9.716 8.211-24.557 8.211-44.514v-19.115c0-13.013 0.524-21.855 1.576-26.484 1.585-7.332 5.228-12.732 10.983-16.244v-7.117h-65.662c-1.828 6.28-3.086 11.4-3.895 15.262-1.543 7.963-2.38 16.174-2.488 24.515l-0.379 26.488c-0.248 18.165-3.404 30.271-9.403 36.298-6.032 6.069-17.361 9.085-33.923 9.085h-58.13v-111.644h-58.158v284.747h136.248c19.423-0.383 34.437-2.843 44.888-7.332zM564.565 759.548v-76.501h64.054c12.732 0 22.28 1.543 28.625 4.629 11.259 5.401 16.87 16.094 16.87 32.090 0 17.258-5.438 28.836-16.314 34.765-6.135 3.334-15.299 5.017-27.545 5.017h-65.69zM845.123 524.258h-59.135v284.751h59.135v-284.751z" horiz-adv-x="1015" />
<glyph unicode="&#xe617;" d="M881.335 84.536c26.539 32.345 35.708 77.397 20.452 119.428l-14.059 38.597h84.602v713.38h-917.814v-713.385h493.573l53.807-147.832c15.332-42.069 51.378-70.571 92.395-78.27l23.688-78.792h217.436l-54.079 146.874zM854.307 333.34l-20.067 54.685-29.804 82.023c-45.375-16.553-68.786-66.63-52.186-111.893l32.641-89.126h-703.911v660.386h864.881v-660.386h-67.936l-23.618 64.31zM183.428 782.284c22.984 23.514 52.224 35.253 87.684 35.253 47.517 0 82.239-15.745 104.208-47.236 12.119-17.68 18.62-35.427 19.503-53.248h-59.613c-3.795 13.678-8.681 24.008-14.618 31.002-10.616 12.368-26.361 18.559-47.198 18.559-21.227 0-37.991-8.751-50.251-26.22-12.265-17.502-18.385-42.242-18.385-74.226 0-32.016 6.463-55.982 19.404-71.91 12.932-15.957 29.372-23.895 49.302-23.895 20.461 0 36.061 6.816 46.78 20.485 5.937 7.379 10.865 18.413 14.759 33.111h59.256c-5.125-31.11-18.164-56.372-39.142-75.884-21.015-19.47-47.94-29.203-80.727-29.203-40.598 0-72.507 13.143-95.735 39.471-23.27 26.464-34.863 62.732-34.863 108.779-0.005 49.828 13.209 88.21 39.635 115.162zM500.229 812.121h67.476l100.93-285.348h-64.662l-18.808 58.659h-105.082l-19.334-58.659h-62.375l101.855 285.348zM496.325 634.603h73.066l-36.061 112.255-37.005-112.255zM883.022 812.121v-50.538h-85.368v-234.811h-60.031v234.811h-85.72v50.538h231.119z" horiz-adv-x="1029" />
<glyph unicode="&#xe618;" d="M881.603 85.232c26.492 32.284 35.633 77.246 20.419 119.202l-14.031 38.517h84.433v712.014h-916.053v-712.018h492.629l53.704-147.545c15.299-41.984 51.285-70.435 92.221-78.12l23.632-78.641h217.022l-53.976 146.592zM854.627 333.556l-20.034 54.582-29.748 81.864c-45.281-16.525-68.646-66.499-52.088-111.677l32.585-88.952h-702.558v659.113h863.218v-659.113h-67.8l-23.575 64.183zM301.465 781.641c22.941 23.472 52.125 35.187 87.51 35.187 47.433 0 82.089-15.717 104.006-47.146 12.105-17.643 18.592-35.356 19.47-53.145h-59.495c-3.791 13.65-8.666 23.961-14.599 30.941-10.592 12.344-26.309 18.521-47.104 18.521-21.185 0-37.916-8.737-50.167-26.168-12.241-17.469-18.338-42.162-18.338-74.080 0-31.955 6.454-55.878 19.362-71.769 12.903-15.928 29.32-23.853 49.213-23.853 20.414 0 35.99 6.806 46.686 20.447 5.928 7.365 10.846 18.38 14.731 33.050h59.138c-5.115-31.044-18.127-56.264-39.067-75.738-20.978-19.433-47.846-29.146-80.572-29.146-40.518 0-72.37 13.115-95.551 39.396-23.228 26.413-34.797 62.614-34.797 108.567 0 49.725 13.19 88.036 39.574 114.937zM766.896 811.417v-50.439h-85.199v-234.36h-59.913v234.36h-85.556v50.439h230.668z" />
<glyph unicode="&#xe619;" d="M634.459 876.013v-27.715h-119.827v43.525h-34.644c0 27.064-29.418 61.785-71.211 61.785-40.692 0-77.556-31.773-77.556-79.719 0-22.777 13.082-43.132 24.633-50.071-45.774-16.901-107.147-74.886-119.263-110.19-16.843-33.668 29.39-61.88 53.162-28.222 23.763 33.668 50.434 74.963 129.627 94.773l0.134-34.883c-32.653-6.182-122.612-59.201-122.612-162.156v-598.341c0-14.853 6.929-39.582 36.625-39.582h263.532c29.706 0 36.634 24.739 36.634 39.582v598.341c0 102.955-86.762 155.973-119.818 162.156l0.163 41.62h120.411v-25.763l294.663-44.539v202.235l-294.654-42.836zM407.686 844.039c-18.863 0-34.146 15.293-34.146 34.146 0 18.844 15.283 34.127 34.146 34.127 18.853 0 34.137-15.283 34.137-34.127 0-18.853-15.283-34.146-34.137-34.146z" horiz-adv-x="1014" />
<glyph unicode="&#xe61a;" d="M874.473 488.866c84.146 0 134.238-50.124 134.238-126.896v-359.363c0-27.841-2.499-50.387-2.499-50.387h-384.249v349.269h-15.665l-71.323-106.416c-11.621-15.834-35.201-23.514-53.981-23.514h-167.443c-27.836 0-50.387 22.533-50.387 50.326 0 27.742 22.551 49.645 50.387 49.645h152.294l105.632 159.777c25.36 38.635 72.286 57.067 114.693 57.067 0-112.363 28-159.918 78.623-159.918v-186.814c-14.223-6.116-24.233-20.269-24.233-36.775 0-22.077 17.652-39.762 39.725-39.762 22.101 0 39.79 18.164 39.79 40.307 0 16.473-10.005 30.631-24.233 36.728v186.875c50.594 0.023 78.632 47.508 78.632 159.852zM842.907 488.866c-0.888-115.177-20.814-130.339-62.619-130.339-41.754 0-61.698 15.167-62.581 130.339h125.2zM779.607 748.276c63.474 0 114.918-51.444 114.918-114.956 0-63.465-51.449-114.932-114.918-114.932-63.474 0-114.975 51.468-114.975 114.932 0 63.507 51.496 114.956 114.975 114.956zM497.138 732.555c14.012 0 25.431 11.414 25.431 25.468s-11.414 25.45-25.431 25.45c-14.087 0-25.468-11.396-25.468-25.45s11.381-25.468 25.468-25.468zM315.199 872.866c20.020 0 36.263 16.243 36.263 36.272 0 20.015-16.243 36.291-36.263 36.291-20.053 0-36.291-16.276-36.291-36.291-0.009-20.034 16.238-36.272 36.291-36.272zM118.295 872.631c20.325 0 36.845 16.351 36.845 36.53 0 20.17-16.52 36.53-36.845 36.53-20.33 0-36.808-16.351-36.808-36.53-0.005-20.179 16.478-36.53 36.808-36.53zM462.59 512.864c0-8.22 6.783-14.928 15.045-14.928 8.225 0 14.909 6.703 14.909 14.928 0 12.255 0 89.285 0 89.285h11.687c0 0 0-77.030 0-89.285 0-8.22 6.684-14.928 14.947-14.928 8.258 0 15.008 6.703 15.008 14.928 0 12.255 0 166.893 0 166.893h11.551c0 0 0-49.396 0-56.588 0-6.167 4.979-11.151 11.104-11.151 6.167 0 11.001 4.988 11.001 11.151v64.334c0 18.009-15.867 32.627-33.825 32.627 0 0-69.064-0.052-69.336-0.080l-22.345 2.165-28.719 100.103c-11.579 40.373-45.38 39.095-45.38 39.095h-93.104c0 0-33.797 1.273-45.38-39.095l-15.045-52.421-15.045 52.421c-11.579 40.373-45.38 39.095-45.38 39.095h-72.037c0 0-33.773 1.273-45.361-39.095l-28.996-101.010c-2.776-9.418 1.851-18.225 10.080-20.607 8.258-2.335 17.272 3.391 19.47 10.926l28.151 98.473h13.777l-41.214-170.468h36.418v-121.081c0-9.991 8.056-18.084 18.028-18.084 10.005 0 18.16 8.093 18.16 18.084v121.081h15.252v-121.081c0-9.991 8.051-18.084 18.066-18.084 10.005 0 18.098 8.093 18.098 18.084v121.081h35.817l-40.847 170.468h13.777l28.169-98.473c1.921-6.539 7.92-11.832 15.012-11.236 7.093-0.601 14.322 4.697 16.177 11.236l28.207 98.473h12.683c0 0 0-270.627 0-288.059 0-11.738 9.596-21.269 21.382-21.269 11.729 0 21.288 9.531 21.288 21.269 0 17.422 0 163.892 0 163.892h15.726c0 0 0-146.46 0-163.892 0-11.738 9.526-21.269 21.288-21.269 11.743 0 21.33 9.531 21.33 21.269 0 17.422 0 288.059 0 288.059h13.777l26.187-95.199c1.644-5.712 7.572-11.283 13.913-13.195l36.535-10.221v-178.622h-0.005z" />
<glyph unicode="&#xe61b;" d="M406.29 489.025c-4.185 0-8.365-0.201-12.573-0.599v-40.338h14.373c11.811 0 16.791 5.985 16.791 19.984 0 11.764-3.17 20.952-18.591 20.952zM676.247 606.154v328.48h-328.802v-328.48h-328.924v-328.723h328.924v-328.484h328.802v328.484h328.826v328.723h-328.826zM132.578 375.174h-66.163v133.232h64.559v-21.588h-38.772v-31.95h34.989v-21.387h-34.989v-37.318h40.376v-20.99zM254.134 375.174h-24.179v86.283h-0.809l-24.983-50.718-25.189 50.517v-86.081h-25.189v133.232h24.183l26.189-50.527 25.792 50.527h24.188v-133.232zM346.711 375.174h-66.149v133.232h64.568v-21.588h-38.818v-31.95h35.026v-21.387h-35.026v-37.318h40.399v-20.99zM451.472 375.17h-26.956l-12.223 46.749c-0.987 3.792-1.796 5.583-5.19 5.583h-13.387v-52.332h-25.792v132.433c12.615 1.403 24.38 1.8 37.378 1.8 27.19 0 44.967-12.396 44.967-39.73 0-19.213-7.795-29.369-19.596-33.984v-0.201c2.81-0.8 3.811-2.805 4.61-6.172l16.188-54.146zM560.217 433.323c0-28.971-7.201-60.346-43.349-60.346-37 0-49.203 35.751-49.203 68.533 0 33.151 13.424 69.108 51.181 69.108 14.177 0 24.754-5.817 34.984-15.977l-14.2-18.979c-5.793 7.182-10.787 12.961-21.163 12.961-22.168 0-23.786-30.743-23.786-46.95 0-16.37 0.584-48.114 22.963-48.114 17.179 0 19.171 15.57 19.166 29.383v4.774h-18.142v21.144h41.559v-15.538zM648.594 375.174h-66.163v133.232h64.582v-21.588h-38.828v-31.95h35.017v-21.387h-35.017v-37.318h40.413v-20.99zM760.935 375.174h-22.575l-42.779 82.271h-0.599v-82.271h-25.184v133.232h24.983l40.81-78.89h0.365v78.89h24.983v-133.232zM833.33 372.977c-36.77 0-49.975 32.544-49.975 68.697 0 34.185 14.214 68.94 51.191 68.94 15.566 0 25.759-7.018 36.004-19.18l-15.421-18.208c-5.77 8.819-11.166 15.397-20.985 15.397-18.217 0-23.823-22.958-23.823-46.95 0-17.978 3.614-46.912 24.403-46.912 10.843 0 16.8 6.584 23.393 15.369l13.195-18.787c-8.805-10.782-21.602-18.381-37.982-18.367zM936.502 426.103v-50.933h-25.6v49.531l-34.807 83.706h27.597l20.204-60.72 20.181 60.72h26.208l-33.783-82.303z" horiz-adv-x="1019" />
<glyph unicode="&#xe61c;" d="M830.192 26.732v447.995c0 45.206-35.849 81.807-81.582 81.807h-449.010c-47.282 0-81.619-37.099-81.619-81.788l-0.122-0.019v-447.995c0-45.704 37.024-81.262 81.732-81.272h449.536c44.68 0 81.159 33.501 81.065 81.159v0.113zM745.566 30.377h-443.082v440.508h443.082v-440.508zM634.795 903.248c-0.489 58.584 84.287 59.27 84.776 0l-1.296-177.81 45.601 55.86c31.472 34.562 86.824-13.622 52.656-52.647l-110.592-131.645c-17.455-17.474-40.161-17.38-57.522 0l-110.066 132.143c-34.177 39.053 21.701 87.726 52.647 52.666l45.094-56.376-1.296 177.81zM327.069 627.745c-0.489-58.584 84.278-59.242 84.767 0l-1.287 177.828 45.591-55.85c31.49-34.562 86.833 13.622 52.666 52.647l-110.583 131.636c-17.474 17.474-40.199 17.361-57.541 0l-110.066-132.162c-34.187-39.025 21.682-87.707 52.647-52.647l45.075 56.376-1.268-177.828zM724.569 218.558c0-8.944-7.187-15.135-15.078-15.135 0 0-99.093 0-99.215 0-7.788 0-15.097 6.304-15.097 15.135v107.821c0 12.373 9.911 20.846 20.743 20.846-0.113 0 87.848 0 87.848 0 11.828 0 20.79-9.423 20.79-20.846v-107.821h0.009zM700.303 207.379h-37.747v-145.831c0-25.854 37.747-25.854 37.747 0v145.831zM656.816 207.379h-37.756v-145.831c0-25.666 37.756-25.666 37.756 0v145.831zM688.57 384.315c0-15.648-12.685-28.334-28.334-28.334s-28.334 12.685-28.334 28.334c0 15.648 12.685 28.334 28.334 28.334 15.648 0 28.334-12.685 28.334-28.334zM588.922 218.558c0-8.944-7.168-15.135-15.069-15.135 0 0-99.084 0-99.215 0-7.797 0-15.116 6.304-15.116 15.135v107.821c0 12.373 9.93 20.846 20.743 20.846-0.103 0 87.848 0 87.848 0 11.837 0 20.781-9.423 20.781-20.846v-107.821h0.028zM564.675 207.379h-37.756v-145.831c0-25.854 37.756-25.854 37.756 0v145.831zM521.197 207.379h-37.766v-145.831c0-25.666 37.766-25.666 37.766 0v145.831zM552.951 384.315c0-15.648-12.685-28.334-28.334-28.334-15.648 0-28.334 12.685-28.334 28.334 0 15.648 12.685 28.334 28.334 28.334 15.648 0 28.334-12.685 28.334-28.334zM453.313 218.558c0-8.944-7.196-15.135-15.088-15.135 0 0-99.084 0-99.215 0-7.779 0-15.106 6.304-15.106 15.135v107.821c0 12.373 9.921 20.846 20.743 20.846-0.113 0 87.848 0 87.848 0 11.828 0 20.79-9.423 20.79-20.846v-107.821h0.028zM429.056 207.379h-37.756v-145.831c0-25.854 37.756-25.854 37.756 0v145.831zM385.559 207.379h-37.747v-145.831c0-25.666 37.747-25.666 37.747 0v145.831zM417.322 384.315c0-15.648-12.685-28.334-28.334-28.334s-28.334 12.685-28.334 28.334c0 15.648 12.685 28.334 28.334 28.334 15.648 0 28.334-12.685 28.334-28.334z" horiz-adv-x="1015" />
<glyph unicode="&#xe61d;" d="M551.651 944.444c-171.859 0-330.252-129.029-363.249-271.196-7.35-31.571-15.594-114.16-15.594-114.16l-78.96-199.208c-1.59-3.586-2.417-7.631-2.417-11.877 0-16.809 13.667-30.505 30.542-30.505h8.388c-1.8 6.626-0.486 13.906 4.62 19.222 12.082 12.489 24.945 23.402 38.276 32.473 9.207 6.275 21.733 3.867 28.022-5.344 6.247-9.216 3.858-21.775-5.349-28.027-7.94-5.382-15.631-11.9-23.122-18.876v-74.093h17.801c11.152 0 20.195-9.006 20.195-20.157 0-11.147-9.043-20.185-20.195-20.185h-17.352c4.727-78.231 69.468-140.255 148.943-140.255h59.252v-116.025h88.691v15.117c0 11.156 9.043 20.19 20.195 20.19 11.147 0 20.157-9.038 20.157-20.19v-15.117h36.27v15.089c0 11.152 9.038 20.185 20.185 20.185 11.147 0 20.157-9.038 20.157-20.185v-15.089h198.572v321.55c88.101 69.291 144.735 177.040 144.735 297.867-0.014 209.2-169.493 378.796-378.763 378.796zM266.156 569.066c23.365 0 42.241-18.909 42.241-42.311 0-23.304-18.876-42.279-42.241-42.279-23.398 0-42.339 18.979-42.339 42.279-0.005 23.398 18.937 42.311 42.339 42.311zM219.702 372.537c-3.072 10.708 3.1 21.892 13.803 24.964 15.636 4.521 32.3 7.35 49.624 8.515 11.423 0.762 20.742-7.696 21.471-18.801 0.762-11.124-7.668-20.751-18.778-21.481-14.458-0.963-28.298-3.31-41.128-7.042-1.861-0.514-3.731-0.79-5.588-0.79-8.772 0.009-16.847 5.77-19.405 14.635zM297.283 202.516h-46.141c-11.152 0-20.153 9.043-20.153 20.185 0 11.152 9.001 20.157 20.153 20.157h46.141c11.147 0 20.153-9.006 20.153-20.157 0-11.142-9.006-20.185-20.153-20.185zM560.558 480.777h46.141c11.147 0 20.153-9.043 20.153-20.19 0-11.152-9.006-20.157-20.153-20.157h-46.141c-11.152 0-20.157 9.006-20.157 20.157 0 11.152 9.010 20.19 20.157 20.19zM451.266 427.595c9.249 16.604 23.538 30.271 41.348 39.412 9.903 5.106 22.084 1.244 27.152-8.664 5.111-9.908 1.248-22.088-8.664-27.194-10.694-5.531-19.189-13.532-24.571-23.197-3.694-6.63-10.558-10.357-17.632-10.357-3.306 0-6.696 0.795-9.8 2.52-9.73 5.429-13.251 17.712-7.832 27.48zM324.823 386.181c1.833 10.974 12.078 18.46 23.197 16.665 16.253-2.656 32.441-6.799 48.030-12.283 10.525-3.694 16.052-15.192 12.358-25.712-2.899-8.314-10.698-13.536-19.049-13.536-2.212 0-4.451 0.383-6.663 1.174-13.387 4.695-27.265 8.187-41.203 10.525-11.012 1.8-18.465 12.162-16.669 23.169zM418.409 193.716c-3.656-6.728-10.6-10.563-17.745-10.563-3.278 0-6.551 0.795-9.627 2.445-11.591 6.322-24.258 10.909-37.612 13.705-10.909 2.277-17.913 12.938-15.669 23.847 2.277 10.937 12.975 17.95 23.879 15.678 17.221-3.6 33.61-9.567 48.661-17.749 9.805-5.349 13.429-17.6 8.113-27.363zM426.695 355.98c3.932 6.181 10.698 9.151 17.534 9.006 2.039 6.42 6.934 11.834 13.934 13.639 10.843 2.726 21.813-3.778 24.539-14.574 5.041-19.741 15.295-36.752 15.393-36.925 5.831-9.487 2.862-21.92-6.626-27.746-3.31-2.043-6.939-3.011-10.563-3.011-5.176 0-10.249 2.043-14.079 5.765-0.033 0.037-0.108 0.075-0.136 0.103-10.492 9.562-21.845 18.259-33.82 25.89-9.389 5.976-12.148 18.465-6.177 27.854zM452.748 117.449c-5.793 12.737-13.008 24.408-21.429 34.648-7.074 8.636-5.835 21.331 2.796 28.401 8.594 7.112 21.326 5.831 28.401-2.796 10.628-12.943 19.704-27.615 26.951-43.527 4.624-10.146 0.173-22.117-9.973-26.703-2.726-1.248-5.55-1.838-8.351-1.838-7.659 0.009-15.014 4.395-18.395 11.816zM510.485 21.885c0-11.156-9.006-20.19-20.153-20.19-11.152 0-20.195 9.038-20.195 20.19v11.283c0 10.806-0.762 21.495-2.244 31.814-1.585 11.040 6.074 21.294 17.081 22.893 11.287 1.552 21.252-6.079 22.846-17.123 1.796-12.213 2.656-24.843 2.656-37.579l0.009-11.287zM524.461 223.22c-5.906 12.882-12.975 25.296-21.050 36.995-6.35 9.179-4.045 21.738 5.106 28.059 9.183 6.345 21.733 4.068 28.092-5.106 9.389-13.602 17.67-28.097 24.539-43.097 4.657-10.118 0.206-22.093-9.903-26.75-2.726-1.248-5.592-1.838-8.43-1.838-7.622 0.005-14.935 4.353-18.353 11.736zM546.648 127.942c-0.379 14.182-2.001 28.401-4.83 42.274-2.24 10.941 4.83 21.565 15.739 23.814 10.876 2.24 21.565-4.825 23.809-15.771 3.287-16.15 5.181-32.717 5.625-49.213 0.318-11.147-8.454-20.391-19.592-20.704-0.21-0.037-0.379-0.037-0.594-0.037-10.871 0-19.844 8.697-20.157 19.638zM587.098 21.848c0-11.152-9.006-20.19-20.157-20.19s-20.185 9.043-20.185 20.19v46.103c0 11.147 9.038 20.195 20.185 20.195s20.157-9.052 20.157-20.195v-46.103zM598.175 348.527v34.381l6.663 0.070c42.896 0.070 77.894 34.989 78.030 77.857-0.131 42.858-35.134 77.791-78.030 77.861l-6.663 0.037v34.334h6.696c61.982 0 112.402-50.316 112.402-112.233 0-61.912-50.419-112.308-112.402-112.308h-6.696z" horiz-adv-x="1019" />
<glyph unicode="&#xe61e;" d="M911.085 605.952v-264.401h-141.691l-193.555 197.006c0 0-31.080 60.473 29.412 67.394h305.835zM707.48 849.294c0-51.537-41.779-93.317-93.317-93.317-51.537 0-93.317 41.779-93.317 93.317 0 51.537 41.779 93.317 93.317 93.317 51.537 0 93.317-41.779 93.317-93.317zM625 453.158l-102.741 104.391v165.139c0.209 2.437 0.332 4.902 0.332 7.386 0 51.532-41.785 93.307-93.326 93.307-10.98 0-21.523-1.906-31.317-5.395l-0.104 0.521-2.399-1.46c-10.743-4.181-20.508-10.278-28.89-17.873l-188.407-116.48c-1.166-0.702-2.342-1.394-3.47-2.152l-3.224-1.982 0.076-0.152c-23.846-16.858-39.471-44.639-39.5-76.108l-0.332 0.209v-572.416c-0.256-2.541-0.408-5.12-0.408-7.708 0-39.433 31.981-71.405 71.415-71.405 39.424 0 71.415 31.981 71.415 71.405 0 3.423-0.275 6.77-0.721 10.050v487.159l-2.285 1.327c0.341 0.199 0.692 0.398 1.043 0.597l1.242-1.915 155.525 101.49v-108.402l132.617-128.332 0.284 0.303c8.448-8.552 20.186-13.852 33.138-13.852 25.761 0 46.649 20.878 46.649 46.649 0.057 14.308-6.447 27.136-16.612 35.698zM837.414 686.545c0-8.593-6.966-15.559-15.559-15.559s-15.559 6.966-15.559 15.559c0 8.593 6.966 15.559 15.559 15.559 8.593 0 15.559-6.966 15.559-15.559zM801.119 669.269c0-8.593-6.966-15.559-15.559-15.559s-15.559 6.966-15.559 15.559c0 8.593 6.966 15.559 15.559 15.559 8.593 0 15.559-6.966 15.559-15.559zM713.207 750.677c0 6.466 5.224 11.691 11.653 11.691 6.457 0 11.662-5.224 11.662-11.691 0-6.409-5.215-11.643-11.662-11.643-6.438 0.009-11.653 5.234-11.653 11.643zM699.61 738.816c0-6.446-5.226-11.672-11.672-11.672s-11.672 5.226-11.672 11.672c0 6.446 5.226 11.672 11.672 11.672 6.446 0 11.672-5.226 11.672-11.672zM668.7 711.177c0-6.441-5.221-11.662-11.662-11.662s-11.662 5.221-11.662 11.662c0 6.441 5.221 11.662 11.662 11.662 6.441 0 11.662-5.221 11.662-11.662zM652.961 672.493c0-6.446-5.226-11.672-11.672-11.672s-11.672 5.226-11.672 11.672c0 6.446 5.226 11.672 11.672 11.672 6.446 0 11.672-5.226 11.672-11.672zM652.961 634.273c0-6.446-5.226-11.672-11.672-11.672s-11.672 5.226-11.672 11.672c0 6.446 5.226 11.672 11.672 11.672 6.446 0 11.672-5.226 11.672-11.672zM689.436 634.273c0-6.446-5.226-11.672-11.672-11.672s-11.672 5.226-11.672 11.672c0 6.446 5.226 11.672 11.672 11.672 6.446 0 11.672-5.226 11.672-11.672zM689.436 669.696c0-6.446-5.226-11.672-11.672-11.672s-11.672 5.226-11.672 11.672c0 6.446 5.226 11.672 11.672 11.672 6.446 0 11.672-5.226 11.672-11.672zM704.123 702.54c0-6.441-5.221-11.662-11.662-11.662s-11.662 5.221-11.662 11.662c0 6.441 5.221 11.662 11.662 11.662 6.441 0 11.662-5.221 11.662-11.662zM736.095 717.208c0-6.446-5.226-11.672-11.672-11.672s-11.672 5.226-11.672 11.672c0 6.446 5.226 11.672 11.672 11.672 6.446 0 11.672-5.226 11.672-11.672zM775.092 746.060c0-7.090-5.748-12.838-12.838-12.838s-12.838 5.748-12.838 12.838c0 7.090 5.748 12.838 12.838 12.838 7.090 0 12.838-5.748 12.838-12.838zM773.566 705.65c0-7.090-5.748-12.838-12.838-12.838s-12.838 5.748-12.838 12.838c0 7.090 5.748 12.838 12.838 12.838 7.090 0 12.838-5.748 12.838-12.838zM810.278 725.087c0-7.085-5.743-12.828-12.828-12.828-7.085 0-12.828 5.743-12.828 12.828 0 7.085 5.743 12.828 12.828 12.828 7.085 0 12.828-5.743 12.828-12.828z" horiz-adv-x="1015" />
<glyph unicode="&#xe61f;" d="M87.716 416.707h88.745c6.741 0 12.969-3.359 16.685-8.897 0 0 16.915-25.53 33.797-50.871 9.366 82.982 41.956 373.027 41.956 373.027 1.127 9.568 8.972 17.121 18.728 17.685 9.681 0.597 18.352-5.872 20.593-15.29 0 0 42.501-178.195 62.614-262.384 13.232 37.423 26.61 75.325 26.61 75.325 2.804 7.929 10.315 13.307 18.737 13.35 8.394 0.038 15.989-5.19 18.864-13.124 0 0 39.476-107.219 47.381-128.817 19.987 0 77.021 0 77.021 0 6.731 0 12.969-3.359 16.675-8.901 0 0 16.929-25.534 33.783-50.881 9.39 82.982 41.979 373.032 41.979 373.032 1.080 9.568 8.934 17.121 18.7 17.685 9.676 0.597 18.385-5.872 20.626-15.294 0 0 42.463-178.12 62.581-262.384 13.227 37.423 26.652 75.325 26.652 75.325 2.795 7.929 10.268 13.307 18.69 13.35 8.413 0.038 16.036-5.19 18.874-13.124 0 0 39.513-107.215 47.409-128.817 13.786 0 54.681 0 78.721 0l4.185 7.999c38.236 65.794 66.156 187.617 66.156 276.33 0 113.194-82.38 249.931-242.923 249.931-229.404 0-258.894-214.899-258.894-214.899s-28.451 213.856-257.714 213.856c-154.882 0-237.972-131.772-237.972-248.888 0-101.155 44.295-226.013 66.978-277.297l3.762-7.027zM851.461 376.71c-8.413 0-15.891 5.27-18.756 13.082 0 0-17.718 48.109-33.092 89.868-14.355-40.749-30.64-86.918-30.64-86.918-2.955-8.366-11.039-13.791-19.888-13.265-8.859 0.409-16.37 6.656-18.39 15.322 0 0-28.597 119.77-51.806 217.074-13.801-122.575-35.328-313.973-35.328-313.973-0.935-8.3-7.027-15.21-15.214-17.15-8.187-1.987-16.671 1.348-21.349 8.338 0 0-48.485 72.972-58.279 87.618-16.666 0-80.252 0-80.252 0-8.366 0-15.867 5.261-18.728 13.082 0 0-17.718 48.109-33.083 89.863-14.425-40.744-30.72-86.918-30.72-86.918-2.955-8.37-11.029-13.791-19.883-13.265-8.864 0.409-16.356 6.656-18.455 15.322 0 0-28.54 119.775-51.707 216.928-13.796-122.462-35.309-313.818-35.309-313.818-0.949-8.3-7.027-15.21-15.196-17.15-8.187-1.987-16.671 1.348-21.363 8.338 0 0-48.48 72.972-58.274 87.618-8.126 0-33.886 0-56.311 0 143.421-254.83 403.221-422.672 403.221-422.672s264.502 167.875 410.201 422.672l-71.398 0.005z" />
<glyph unicode="&#xe620;" d="M232.819 769.282c42.778 0 77.397 34.684 77.397 77.429 0 42.75-34.623 77.397-77.397 77.397-42.731 0-77.397-34.647-77.397-77.397 0.005-42.74 34.666-77.429 77.397-77.429zM813.653 770.367c43.407 0 78.637 35.215 78.637 78.618 0 43.417-35.229 78.641-78.637 78.641-43.44 0-78.599-35.229-78.599-78.641-0.005-43.403 35.159-78.618 78.599-78.618zM204.218 328.671c-101.756 0-184.254-82.484-184.254-184.235 0-101.756 82.493-184.25 184.254-184.25s184.25 82.493 184.25 184.25c0 101.747-82.493 184.235-184.25 184.235zM226.060 27.479v-29.442h-44.041v29.442c-46.982 5.383-76.936 50.101-76.936 79.327h46.954c0-13.143 10.127-30.593 30.415-34.769v55.207c-10.127 1.954-15.797 3.551-26.662 6.534-27.756 7.666-46.977 31.039-46.977 60.834 0 29.513 28.818 62.633 73.216 68.505v27.498h44.051v-27.498c47.085-6.059 76.044-40.852 76.044-75.612l-45.995 0.023c-0.033 15.196-12.673 29.001-30.053 30.701v-51.768c12.777-2.823 12.777-2.494 24.534-5.698 43.802-11.922 53.675-40.598 53.675-64.639-0.009-36.934-29.541-62.276-78.223-68.646zM182.014 174.531c-19.681 3.504-25.135 11.926-25.135 21.011 0 10.606 13.345 20.832 25.135 22.204v-43.215zM226.591 72.244v46.653c19.442-2.785 31.758-11.156 31.758-23.162 0-10.62-11.471-22.725-31.758-23.491zM131.814 635.204h30.518l-35.267-131.25h211.508l-35.258 131.25h30.518l36.141-131.25h68.049l-43.656 159.194c-11.644 38.503-49.744 79.337-99.662 79.337h-123.782c-49.96 0-88.055-40.833-99.708-79.337l-43.619-159.194h68.049l36.169 131.25zM897.668 743.274c38.625 0 69.966-31.293 69.966-69.909l-0.117-214.627h45.047v-87.984l-91.131-0.047v-364.389c0-25.473-20.889-46.127-46.381-46.127-25.422 0-46.089 20.658-46.089 46.127 0 34.807 0 319.944 0 364.351h-29.391c0-44.441 0-329.545 0-364.351 0-25.473-20.687-46.127-46.174-46.127-25.464 0-46.315 20.658-46.315 46.127 0 19.672 0 198.097 0 364.328l-687.113-0.211v88.308h687.123c0 114.979 0 206.646 0 206.646l-146.789-173.798c-30.88-35.671-85.866 8.887-54.883 47.029l152.102 182.742c9.845 9.798 18.662 21.917 54.981 21.917h185.166z" />
<glyph unicode="&#xe621;" d="M227.486 784.97c32.856 18.218 63.707 23.287 91.695 15.085 29.002-8.481 50.52-29.556 63.427-45.559-33.029-24.72-53.388-64.116-54.165-106.915-0.074-2.793 0.4-5.274 0.88-7.764 1.978-10.896 8.648-19.27 20.089-24.176 0.647-0.275 2.588-0.88 6.74-0.88 11.338 0 25.162 4.561 25.307 4.594l183.18 51.894c14.061 4.082 21.392 11.678 22.235 23.217l0.275 1.839c0 0.102 0 0.237 0 0.34 1.462 8.346-7.387 22.477-15.048 26.698-11.739 6.572-22.542 12.837-32.619 18.73-37.32 21.723-64.279 37.45-91.56 37.45-2.998 0-6.023-0.344-9.058-0.712-15.839 22.751-49.915 62.715-102.293 78.28-44.060 13.107-90.461 6.405-138.003-19.982-18.52-10.282-112.873-57.512-178.339 1.499v-71.433c87.775-42.878 185.735 5.851 207.258 17.794zM777.346 645.781c-26.224 6.060-94.585 12.94-94.585 12.94l-59.443 23.561c-3.449-15.183-14.243-37.725-48.054-47.569l-183.217-51.894c-6.065-1.908-21.113-6.093-35.891-6.093-7.894 0-14.671 1.154-20.699 3.537-16.789 7.187-29.077 18.46-36.501 32.586-17.361-21.281-27.885-48.319-27.923-77.908l0.033-49.138-49.301 0.033c-46.55 64.358-118.9 108.795-201.984 117.574v-570.801c83.354 8.844 155.941 53.555 202.426 118.249h219.21c57.372-72.969 146.651-119.887 246.756-119.924 173.391 0.037 313.875 140.493 313.935 313.875 0 142.471-106.985 273.669-224.763 300.972zM650.719 597.434c0 9.258 7.731 15.933 15.974 15.933 9.258 0 15.933-6.675 15.933-15.933v-68.85c0-8.243-6.675-15.97-15.933-15.97-8.243 0-15.974 7.727-15.974 15.97v68.85zM696.483 304.3c0-52.266-42.361-94.794-94.459-94.794-52.168 0-94.618 42.529-94.618 94.794v7.145h31.8v-7.145c0.074-34.597 28.225-62.86 62.79-62.957 34.56 0.098 62.692 28.365 62.725 62.957v7.145h31.767l-0.005-7.145z" horiz-adv-x="1015" />
<glyph unicode="&#xe622;" d="M541.126 711.149v20.143h26.315v12.732c0 22.659 19.797 40.983 44.294 40.983 24.454 0 44.242-18.324 44.242-40.983v-12.732h25.745v-20.143h-140.597zM867.169 201.927c0-51.92-42.035-94.007-93.913-94.007-51.915 0-94.007 42.092-94.007 94.007 0 51.915 42.096 93.988 94.007 93.988 51.878 0 93.913-42.073 93.913-93.988zM818.153 201.927c0 24.843-20.106 44.934-44.916 44.934-24.838 0-44.967-20.092-44.967-44.934s20.129-44.981 44.967-44.981c24.81 0.005 44.916 20.139 44.916 44.981zM329.097 202.824c0-51.92-42.087-93.97-94.002-93.97-51.883 0-93.96 42.045-93.96 93.97 0 51.883 42.082 94.007 93.96 94.007 51.911 0 94.002-42.124 94.002-94.007zM280.249 202.74c0 24.833-20.125 44.934-44.953 44.934s-44.972-20.106-44.972-44.934c0-24.866 20.143-44.972 44.972-44.972 24.828 0 44.953 20.106 44.953 44.972zM931.003 469.2c28.073-5.466 44.883-17.59 57.554-86.872l20.045-125.040c7.219-40.693-15.781-55.53-44.448-55.53h-68.865c0 67.42-54.623 122.277-122.043 122.277-67.43 0-122.108-54.856-122.108-122.277h-294.281c0 67.42-54.651 122.277-122.076 122.277-67.453 0-122.104-54.856-122.104-122.277h-57.063c-20.092 0-35.751 15.215-35.751 34.844v411.166c0 22.402 17.684 40.404 39.356 40.404h738.851c28.078 0 48.61-13.943 58.751-38.365l74.182-180.607zM684.715 646.254v-170.802h197.496l-69.272 170.802h-128.224zM508.044 497.381v104.803h-104.799v-104.803h-104.822v-104.822h104.822v-104.785h104.799v104.785h104.808v104.822h-104.808z" horiz-adv-x="1019" />
<glyph unicode="&#xe623;" d="M192.809 606.621c5.247 52.993-8.206 108.025-41.927 154.497-33.721 46.509-81.849 76.375-133.847 87.889-5.271-53.031 8.173-108.025 41.89-154.539 33.726-46.505 81.854-76.366 133.884-87.847zM170.951 775.671c8.654-11.962 16.134-24.618 22.514-37.718 6.413 13.152 13.826 25.827 22.438 37.718 9.867 13.605 21.065 25.949 33.235 37.152-5.276 47.529-25.133 90.598-55.268 124.522-30.243-34.099-50.167-77.475-55.305-125.263 11.835-11 22.736-23.118 32.386-36.411zM369.824 849.007c-51.993-11.514-100.121-41.375-133.847-87.889-12.722-17.55-22.552-36.364-29.578-55.787 9.476-29.479 13.482-60.576 11.552-91.886 42.682 14.478 81.5 41.757 109.983 81.019 33.721 46.519 47.165 101.513 41.89 154.544zM651 798.354c-50.374 0-91.193-40.823-91.193-91.23 0-50.336 40.818-91.197 91.193-91.197 50.369 0 91.235 40.856 91.235 91.197 0 50.407-40.861 91.23-91.235 91.23zM887.355 417.464l-46.34 132.143c-8.994 24.887-26.27 44.358-75.021 44.358h-214.082c-48.718 0-66.027-19.465-74.993-44.358l-46.34-132.143c-3.483-8.551-5.276-27.724 13.581-40.578l109.025-71.888c15.893-10.551 37.341-6.139 47.859 9.754 10.485 15.931 6.102 37.407-9.825 47.892l-86.54 57.094 24.383 67.235h33.716l-19.758-54.546 65.682-43.343c14.765-9.716 24.869-24.623 28.412-41.998 3.558-17.337 0.137-35.024-9.584-49.784-3.893-5.861-8.687-10.901-14.034-15.171h90.952c-5.342 4.275-10.131 9.31-14.034 15.171-9.726 14.761-13.133 32.447-9.584 49.784 3.553 17.38 13.652 32.273 28.408 41.998l65.682 43.343-19.782 54.546h33.716l24.411-67.235-86.545-57.094c-15.926-10.481-20.343-31.961-9.825-47.892 10.514-15.893 31.961-20.31 47.859-9.754l109.021 71.888c18.852 12.854 17.021 32.032 13.576 40.578zM848.669 218.246c0 46.34 37.548 83.784 83.784 83.784 46.231 0 83.888-37.444 83.888-83.784 0-46.198-37.652-83.812-83.888-83.812s-83.784 37.614-83.784 83.812zM34.453 50.277c-10.344 0-18.725-8.381-18.725-18.692v-25.043c0 0-1.859-35.51 34.618-35.51 27.686 0 928.966 0 928.966 0 36.685 0 34.825 34.651 34.825 34.651v75.729c0 0-3.138 24.203-31.343 24.203h-90.603c-31.031 0-56.617-55.338-115.788-55.338h-741.952zM755.198 239.628h-260.591l-108.435-16.615 5.002 107.194h-18.172l5.068-108.435-75.715-11.59 5.62 117.784h-18.309l5.587-118.883-103.051-15.799 5.413 118.477h-17.861l5.38-119.539-123.574-18.932c-0.859 0-1.689-0.208-2.558-0.278l5.21 111.3h-17.998l5.063-112.3c-20.343-4.686-35.547-22.896-35.547-44.645 0-25.411 20.513-45.962 45.82-45.962l356.3-0.038c-6.205 10.037-9.966 21.754-9.966 34.377 0 36.302 29.521 65.819 65.829 65.819h142.709l115.679 24.161 6.413-30.72-118.855-24.821h-145.946c-19.003 0-34.41-15.412-34.41-34.448 0-18.861 15.171-34.136 33.957-34.377l282.558-0.033c43.688 0.34 78.749 35.543 78.749 79.051 0 43.735-35.373 79.254-79.367 79.254z" horiz-adv-x="1033" />
<glyph unicode="&#xe624;" d="M900.431 629.394c0-64.456-52.252-116.708-116.708-116.708s-116.708 52.252-116.708 116.708c0 64.456 52.252 116.708 116.708 116.708 64.456 0 116.708-52.252 116.708-116.708zM52.668 859.827v-211.657h-31.65c-6.002 0-10.872 4.818-10.872 10.853v273.125c0 9.24 6.89 16.771 16.351 16.771h139.958c9.447 0 16.356-7.498 16.356-16.733v-16.040h216.366c6.040 0 10.877-4.851 10.877-10.82v-61.412h-184.702v16.073c0 9.24-6.908 16.738-16.389 16.738h-139.91c-9.471 0-16.384-7.626-16.384-16.898zM495.135 519.996c0-6.002-4.856-10.816-10.877-10.816h-378.163c-6.021 0-10.872 4.818-10.872 10.839v273.12c0 9.24 6.89 16.771 16.351 16.771h139.925c9.466 0 16.389-7.503 16.389-16.738v-16.040h216.366c6.026 0 10.877-4.851 10.877-10.82v-246.317zM327.392 675.503v64.408h-64.441v-64.408h-64.436v-64.455h64.436v-64.432h64.441v64.432h64.432v64.455h-64.432zM899.039 482.627c64.663 0 117.066-52.304 117.066-116.967l0.245-427.73h-392.702v354.582h-15.898l-72.411-108.044c-11.797-16.073-35.736-23.868-54.81-23.868h-170.017c-28.238 0-51.172 22.877-51.172 51.091 0 28.167 22.934 50.403 51.172 50.403h154.638l107.284 162.207c25.704 39.228 75.96 58.198 116.425 58.198l210.18 0.127z" horiz-adv-x="1029" />
<glyph unicode="&#xe625;" d="M909.186 391.016v200.33c0 28.429 23.267 51.555 51.859 51.555 28.49 0 51.537-23.127 51.537-51.555v-274.324c0-37.93-13.639-74.57-38.136-103.19l-171.059-181.659c-16.978-15.977-21.139-30.136-21.139-51.565v-33.067h-186.19l-0.206 78.689c0 29.967-2.445 70.020 35.054 109.306l217.055 217.953c7.729 7.453 17.88 11.531 28.621 11.531 22.706 0 41.18-18.432 41.18-41.096 0-9.805-3.465-19.311-9.8-26.788l-104.691-112.14c-6.785-7.954-18.264-22.944-23.968-41.315-3.077-9.539-3.956-18.839-4.129-29.509h33.698c0.136 7.598 0.701 13.714 2.52 19.372 3.292 10.595 9.861 20.125 14.804 26.245l106.267 116.633c13.363 13.471 20.681 30.916 20.681 49.246-0.005 27.54-16.557 52.869-43.957 65.349zM124.778 391.016v200.33c0 28.429-23.267 51.555-51.855 51.555-28.485 0-51.541-23.127-51.541-51.555v-274.324c0-37.93 13.644-74.57 38.14-103.19l171.069-181.659c16.968-15.977 21.13-30.136 21.13-51.565v-33.067h186.186l0.21 78.689c0 29.967 2.441 70.020-35.059 109.306l-217.055 217.953c-7.729 7.453-17.871 11.531-28.621 11.531-22.71 0-41.18-18.432-41.18-41.096 0-9.805 3.465-19.311 9.8-26.788l104.696-112.14c6.789-7.954 18.264-22.944 23.968-41.315 3.086-9.539 3.956-18.839 4.129-29.509h-33.703c-0.136 7.598-0.692 13.714-2.52 19.372-3.287 10.595-9.861 20.125-14.799 26.245l-106.267 116.624c-13.368 13.471-20.681 30.921-20.681 49.25 0 27.545 16.552 52.874 43.953 65.354zM536.576 862.033c24.431 0 44.191 19.802 44.191 44.224 0 24.352-19.774 44.191-44.191 44.191-24.389 0-44.154-19.835-44.154-44.191-0.005-24.422 19.765-44.224 44.154-44.224zM296.792 861.79c-24.772 0-44.827 19.872-44.827 44.504 0 24.562 20.050 44.472 44.827 44.472 24.772 0 44.892-19.91 44.892-44.472 0-24.632-20.125-44.504-44.892-44.504zM756.18 691.17c17.109 0 30.996 13.892 30.996 31.005 0 17.109-13.887 31.001-30.996 31.001-17.146 0-31.038-13.892-31.038-31.001 0-17.109 13.892-31.005 31.038-31.005zM801.067 675.88c-10.913 0-73.050 0-83.627 0-0.379 0-27.989 2.52-27.989 2.52l-35.022 122.085c-14.102 49.157-55.319 47.651-55.319 47.651h-113.369c0 0-41.184 1.506-55.287-47.651l-17.291-60.107-17.249 60.107c-14.172 49.157-55.287 47.651-55.287 47.651h-87.727c0 0-41.212 1.506-55.319-47.651l-35.312-123.030c-3.357-11.516 2.936-20.26 13.017-23.164 10.048-2.866 20.33 2.202 22.916 11.372l34.4 119.916 16.758 0.033-50.213-207.634h44.373v-147.484c0-12.143 9.796-22.037 21.972-22.037 12.143 0 22.079 9.894 22.079 22.037v147.484h18.605v-147.484c0-12.143 9.805-22.037 21.944-22.037 12.213 0 22.107 9.894 22.107 22.037v147.484h43.602l-49.685 207.634 16.688-0.033 34.012-118.653c0.561-2.029 1.468-3.881 2.651-5.494 3.329-5.041 9.132-7.832 15.603-7.622 6.471-0.21 12.246 2.553 15.57 7.523 1.393 1.786 2.343 3.853 2.899 6.121l33.834 118.134 15.43 0.033c0 0 0-329.681 0-350.849 0-14.336 11.727-25.927 26.030-25.927 14.313 0 25.927 11.577 25.927 25.927 0 21.167 0 199.619 0 199.619h19.175c0 0 0-178.452 0-199.619 0-14.336 11.615-25.927 25.89-25.927 14.345 0 26.105 11.577 26.105 25.927 0 21.167 0 350.849 0 350.849l16.767-0.033 32.922-119.916c1.786-5.91 6.724-9.8 12.629-11.306 0.248-0.070 0.383-0.173 0.599-0.243 5.246-1.188 29.439-8.047 47.207-13.12 0-32.366 0-204.103 0-217.607 0-10.044 8.225-18.198 18.264-18.198 10.048 0 18.203 8.15 18.203 18.198 0 14.906 0 108.712 0 108.712h14.28c0 0 0-93.811 0-108.712 0-10.044 8.15-18.198 18.194-18.198s18.301 8.15 18.301 18.198c0 14.906 0 203.262 0 203.262h13.995c0 0 0-60.182 0-68.86 0-7.561 6.121-13.649 13.569-13.649 7.495 0 13.401 6.093 13.401 13.649 0 7.453 0 67.144 0 78.343 0.037 21.929-19.278 39.74-41.222 39.74z" />
<glyph unicode="&#xe626;" d="M10.891 275.786h852.791v-136.422h-852.791v136.422zM934.931 300.515h-45.716v62.579c0 54.406-41.668 65.814-76.656 65.814h-122.736c-38.022 0-70.637 18.872-89.433 51.765-14.948 26.165-19.303 58.32-13.015 87.528-40.702 4.804-67.986 22.557-84.753 38.367-27.093 25.562-42.635 61.239-42.635 97.912 0 69.020 47.008 138.9 136.843 138.9v-45.707c-72.072 0-91.126-60.952-91.126-93.184 0-24.136 10.307-47.707 28.299-64.665 20.796-19.609 50.099-28.902 84.647-26.882 8.843 0.555 16.461-3.694 20.834-10.9 4.421-7.197 4.488-16.24 0.201-23.514-12.719-21.6-12.546-52.511 0.402-75.164 7.493-13.111 22.212-28.739 49.745-28.739h122.736c75.479 0 122.373-42.73 122.373-111.52v-62.588zM1006.104 300.515h-45.697v84.025c0 74.235-51.018 153.15-145.58 153.15h-72.589c-8.575 0-16.451 4.804-20.346 12.46-3.905 7.647-3.187 16.853 1.857 23.81 16.547 22.815 26.433 50.808 26.433 74.876 0 60.445-47.965 104.324-114.028 104.324v45.707c91.069 0 159.725-64.493 159.725-150.030 0-21.332-5.082-43.936-14.432-65.44h33.371c119.741 0 191.277-101.108 191.277-198.857v-84.025zM889.215 277.939h45.716v-138.029h-45.716v138.029zM960.675 277.939h45.697v-138.029h-45.697v138.029z" />
<glyph unicode="&#xe627;" d="M287.858 863.886c0-43.971-35.645-79.616-79.616-79.616s-79.616 35.645-79.616 79.616c0 43.971 35.645 79.616 79.616 79.616 43.971 0 79.616-35.645 79.616-79.616zM396.316 638.521v40.22c0 42.306-34.276 76.601-76.61 76.601h-223.185c-42.306 0-76.61-34.295-76.61-76.601v-40.22c-0.076-0.91-0.123-1.849-0.123-2.788v-231.604c0-17.986 14.583-32.569 32.578-32.569 17.958 0 32.578 14.573 32.578 32.569v228.153h21.836v-260.75h0.161v-368.46c0-23.96 19.465-43.416 43.416-43.416 23.998 0 43.444 19.447 43.444 43.416v368.46h28.663v-368.46c0-23.96 19.456-43.416 43.425-43.416 23.998 0 43.425 19.447 43.425 43.416v368.46h0.133v260.75h21.836v-228.153c0-17.986 14.611-32.569 32.578-32.569 17.996 0 32.569 14.573 32.569 32.569v231.604c0.009 0.958-0.038 1.887-0.114 2.788zM779.435 789.4c43.937 0 79.597 35.631 79.597 79.588 0 43.985-35.66 79.635-79.597 79.635-43.985 0-79.644-35.65-79.644-79.635 0-43.956 35.65-79.588 79.644-79.588zM1002.648 446.142l-71.424 264.922c-0.664 2.399-1.602 4.703-2.74 6.817-8.107 24.823-31.403 42.79-58.927 42.79h-180.774c-28.681 0-52.774-19.513-59.866-45.995-0.484-1.166-0.882-2.38-1.233-3.631l-70.153-264.903c-4.674-17.361 5.641-35.224 23.031-39.889 17.37-4.655 35.224 5.67 39.889 23.031l55.116 208.090h22.955l-100.020-376.5h94.217v-259.935c0-19.987 16.194-36.191 36.2-36.191 19.959 0 36.172 16.194 36.172 36.191v259.935h28.795v-259.935c0-19.987 16.204-36.191 36.21-36.191 19.968 0 36.181 16.194 36.181 36.191v259.935h94.17l-100.38 376.5h23.552l56.102-208.090c4.684-17.361 22.528-27.686 39.889-23.031 17.38 4.665 27.686 22.528 23.040 39.889zM459.937 946.953h56.159v-982.111h-56.159v982.111z" horiz-adv-x="1018" />
<glyph unicode="&#xe628;" d="M487.301 627.759c0-32.379-29.497-67.044-67.764-67.044v-546.617c0-77.615-105.766-77.615-105.766 0v546.617c-37.253 0-69.679 28.681-69.679 71.671v300.838c0 26.178 37.831 27.174 37.831-1.024v-222.369h31.678v224.417c0 24.055 36.447 25.581 36.447-1.024v-223.403h32.73v224.114c0 25.145 35.366 26.159 35.366-0.996v-223.118h32.209v224.114c0 24.889 36.949 25.875 36.949-0.996v-305.18zM769.422 863.279v-848.943c0-75.89-105.984-74.761-105.984 0v336.849h-56.424v512.095c0 119.22 162.408 119.22 162.408 0z" />
<glyph unicode="&#xe629;" d="M742.476 465.172h-115.467v135.121c45.665 35.939 75.073 91.745 75.073 154.35 0 108.487-87.899 196.381-196.339 196.381-89.112 0-171.253-66.867-188.298-140.571-3.813-16.327-8.098-59.142-8.098-59.142l-40.946-103.315c-0.816-1.836-1.227-3.95-1.227-6.163 0-8.678 6.979-15.686 15.686-15.789 4.389 8.843 14.161 14.289 24.5 12.241 12.217-2.246 20.211-14.086 17.795-26.294-1.529-8.442-7.866-14.841-15.832-17.186v-23.642c0-42.767 34.684-77.418 77.409-77.418h30.772v-28.582h-125.084c-143.756 0.109-237.851-105.491-237.851-213.388v-301.113l158.262 0.071v260.686h45.561v-260.686l505.044-0.071v260.742h46.712v-260.742l154.851 0.071 0.113 329.483c0.019 82.085-81.264 185.056-222.637 184.957zM356.89 668.962c-3.841-3.133-8.914-4.87-13.779-4.87-6.975 0-13.576 3.133-17.762 8.721-3.846 4.7-5.422 10.618-4.709 16.54 0.68 6.125 3.808 11.33 8.508 15.006 9.424 7.484 24.236 5.743 31.551-3.676 3.846-4.87 5.408-10.787 4.7-16.714-0.68-5.913-3.643-11.325-8.508-15.006zM423.955 684.653v-0.51l-4.903 0.344c-12.354 1.057-21.608 12.005-20.551 24.392 1.057 11.495 10.82 20.721 22.49 20.721l1.906-0.17c5.917-0.51 11.491-3.294 15.346-7.824 3.813-4.728 5.748-10.485 5.205-16.577-0.849-10.608-9.216-19.154-19.494-20.376zM472.885 656.268c-3.468 4.87-4.865 10.787-3.799 16.714 1.057 5.927 4.186 11.16 9.225 14.638 9.763 6.97 24.392 4.356 31.362-5.38 7.144-10.306 4.705-24.411-5.408-31.551-3.846-2.624-8.371-4.016-13.071-4.016-7.319 0-14.124 3.468-18.309 9.594zM511.74 485.345c-12.349 0-22.457 10.108-22.457 22.462 0 12.392 10.108 22.5 22.457 22.5 12.557 0 22.665-10.108 22.665-22.5 0-12.354-10.108-22.462-22.665-22.462zM511.74 567.94c-12.349 0-22.457 10.103-22.457 22.622 0 12.387 10.108 22.49 22.457 22.49 12.557 0 22.665-10.103 22.665-22.49 0-12.519-10.108-22.622-22.665-22.622zM606.505 371.488c81.953 2.85 128.75-181.154 100.531-352.954-16.596-72.897-60.086 1.902-98.299 8.348-42.291 7.14-66.112 12.071-68.117 34.231-7.343 80.259 23.42 308.819 65.885 310.376zM482.516 61.711c-2.010-22.094-25.779-27.016-68.089-34.132-38.209-6.455-83.845-85.615-98.299-8.362-28.186 171.839 18.644 355.842 100.475 352.917 42.536-1.567 73.261-230.079 65.914-310.423zM541.554 325.587c-8.362 0-16.030 4.709-20.046 12.184-5.738 11-1.383 24.567 9.598 30.333 10.783 5.578 24.902 1.052 30.489-9.598 2.751-5.205 3.299-11.292 1.354-17.054-1.737-5.743-5.545-10.485-10.967-13.265-3.119-1.751-6.795-2.6-10.429-2.6v0zM511.74 402.595c-10.448 0-19.329 7.149-21.943 17.252-1.397 5.932-0.34 12.010 2.789 17.054 3.129 5.238 8.032 8.711 13.954 10.108 11.83 2.959 24.175-4.695 27.153-16.549 2.954-12-4.53-24.227-16.549-27.186-1.727-0.34-3.667-0.68-5.403-0.68v0zM481.969 325.587c-3.506 0-7.144 0.854-10.476 2.591-10.971 5.748-15.143 19.362-9.395 30.314 5.582 10.655 19.701 15.181 30.314 9.594 5.413-2.789 9.221-7.484 11.16-13.236 1.737-5.743 1.194-11.844-1.586-17.248-3.822-7.489-11.476-12.014-20.018-12.014v0zM651.66 32.383c7.833 0 15.308 4.2 19.324 10.787 6.432 10.82 2.963 24.548-7.654 31.027-10.278 6.262-24.736 2.416-31.031-7.687-2.959-5.205-4.002-11.127-2.416-17.068 1.392-5.936 5.035-10.787 10.287-13.921 3.459-2.119 7.47-3.138 11.491-3.138v0zM675.17 110.613c12.010 0 21.943 9.556 22.452 21.57 0.547 12.557-9.221 23-22.452 23.547-12.222 0-22.122-9.594-22.651-21.608-0.17-6.092 1.902-11.84 5.922-16.2 4.195-4.356 9.768-6.975 15.855-7.314h0.873v0.005zM658.088 190.57c3.671 0 6.975 0.854 10.108 2.416 11.16 5.587 15.671 18.998 10.094 30.149-5.224 10.811-19.159 15.695-30.135 10.278-5.417-2.779-9.391-7.314-11.33-13.067-1.902-5.748-1.571-11.844 1.227-17.252 3.836-7.654 11.495-12.524 20.036-12.524v0zM604.939 252.775c7.314 0 14.119 3.478 18.474 9.556 6.979 10.094 4.525 24.232-5.578 31.362-9.735 6.979-24.392 4.36-31.338-5.408-7.149-10.282-4.733-24.392 5.38-31.541 3.841-2.61 8.367-3.969 13.062-3.969v0zM371.863 32.383c4.186 0 8.164 1.029 11.67 3.129 5.030 3.129 8.711 7.994 10.287 13.916 1.383 5.752 0.51 11.877-2.624 16.913-6.257 10.273-20.721 13.935-30.994 7.857-5.073-3.162-8.711-8.032-10.287-13.949-1.397-5.738-0.543-11.83 2.619-17.068 3.983-6.814 11.467-10.797 19.329-10.797v0zM348.519 110.613h0.854c12.382 0.51 21.943 10.957 21.603 23.51-0.51 11.995-10.108 21.608-23.51 21.608-5.922-0.363-11.505-2.779-15.686-7.319-4.006-4.356-6.092-10.103-5.922-16.228 0.547-12.010 10.448-21.57 22.66-21.57v0zM365.224 190.57c8.711 0 16.577 4.87 20.395 12.519 2.61 5.408 2.959 11.495 1.057 17.252s-5.917 10.287-11.33 13.067c-10.957 5.427-24.906 0.543-30.135-10.278-2.77-5.417-3.133-11.5-1.194-17.262 1.906-5.582 5.922-10.273 11.297-12.892 3.143-1.553 6.611-2.407 9.91-2.407v0zM418.547 252.775c4.695 0 9.221 1.359 13.067 3.992 10.103 7.135 12.557 21.268 5.408 31.546-6.979 9.763-21.608 12.382-31.371 5.408-5.026-3.506-8.187-8.716-9.221-14.633-1.052-5.936 0.17-11.877 3.638-16.743 4.356-6.097 11.165-9.57 18.479-9.57v0z" horiz-adv-x="1029" />
<glyph unicode="&#xe62a;" d="M491.111 445.215c-18.681-17.408-168.457-162.722-168.457-162.722l39.978-39.429c0 0 133.064 122.81 153.050 141.387 4.942 4.575 13.312 13.303 28.785 13.303h453.839v62.844h-469.617c-13.725-0.009-26.741-5.388-37.578-15.383zM759.991 786.827c53.215 0 82.263 36.85 82.263 82.254 0 45.39-36.855 82.207-82.263 82.207-45.418 0-82.244-36.822-82.244-82.207 0-45.404 36.822-82.254 82.244-82.254zM638.027 645.482h27.578l-40.415-145.206h269.603l-40.448 145.206h27.582l41.956-145.206h71.267l-57.274 192.672c-7.567 26.605-41.223 73.742-99.474 73.742h-156.832c-58.222 0-91.841-47.137-99.474-73.742l-57.208-192.672h71.267l41.871 145.206zM404.851 507.909l-72.394 134.999c0 0-4.251 6.426-12.138 2.616-7.088-3.424-3.889-11.414-3.889-11.414l24.022-45.836 14.937-28.555-17.225 7.76c-30.532 13.754-47.358 19.639-54.117 22.65-1.198 0.554-7.126 3.814-9.935 9.996-7.999 17.882-42.162 104.345-49.819 123.467-6.473 16.168-22.467 39.147-55.319 47.282-37.39 9.249-75.086-14.336-83.991-51.858l-51.031-215.063c-4.538-17.338-12.358-64.254-12.358-84.029 0-19.78 0.334-420.070 0.334-420.070 0.254-35.436 25.84-64.009 61.243-63.859 35.361 0.108 59.566 28.93 59.458 64.319 0 0-0.047 228.761-0.085 355.878l54.408 229.686c6.351-15.538 14.219-34.464 16.797-39.011 6.135-10.724 12.175-18.103 24.534-23.909 0 0 71.22-29.475 98.783-42.050 16.609-6.36 34.638-0.728 45.131 12.504l3.809 7.887 1.311-2.508c0 0 8.117-14.284 20.104-14.937 3.434 10.898-2.569 24.055-2.569 24.055zM294.766 869.799c0-45.432-36.841-82.282-82.286-82.282-45.441 0-82.244 36.85-82.244 82.282 0 45.427 36.817 82.254 82.244 82.254 45.432 0 82.286-36.826 82.286-82.254zM331.818 333.011l160.284 149.185-20.832 22.359-160.294-149.208z" horiz-adv-x="1019" />
<glyph unicode="&#xe62b;" d="M514.738 943.226c-177.904 0-322.706-144.811-322.706-322.682 0-177.988 144.802-322.724 322.706-322.724 177.899 0 322.668 144.736 322.668 322.724-0.009 177.871-144.769 322.682-322.668 322.682zM514.738 327.694c-161.44 0-292.897 131.391-292.897 292.841 0 161.416 131.457 292.841 292.897 292.841 161.397 0 292.817-131.424 292.817-292.841 0.005-161.444-131.42-292.841-292.817-292.841zM347.695 641.79c14.158 0 47.86 0 61.947 0 0 14.261 0 48.612 0 62.835-14.087 0-47.794 0-61.947 0 0-14.223 0-48.57 0-62.835zM515.025 874.421c-140.081 0-254.008-114.012-254.008-254.027 0-140.053 113.927-253.957 254.008-253.957 140.011 0 253.9 113.904 253.9 253.957-0.005 140.016-113.899 254.027-253.9 254.027zM325.867 619.76v106.905h106.162v-106.905h-106.162zM435.228 424.307c-29.067 0-52.619 23.533-52.619 52.628 0 29.132 23.566 52.661 52.619 52.661 29.024 0 52.548-23.529 52.548-52.661 0-29.095-23.529-52.628-52.548-52.628zM498.881 541.193c-29.062 0-52.656 23.566-52.656 52.623 0 29.062 23.594 52.656 52.656 52.656 28.987 0 52.543-23.59 52.543-52.656s-23.561-52.623-52.543-52.623zM535.74 740.577c-30.542 0-55.381 24.867-55.381 55.465 0 30.659 24.839 55.423 55.381 55.423 30.621 0 55.385-24.764 55.385-55.423 0-30.593-24.769-55.465-55.385-55.465zM627.67 458.273c-29.161 0-52.684 23.561-52.684 52.623 0 29.095 23.524 52.656 52.684 52.656 29.024 0 52.59-23.566 52.59-52.656-0.009-29.062-23.566-52.623-52.59-52.623zM638.812 612.902c-29.024 0-52.619 23.599-52.619 52.661 0 29.132 23.594 52.656 52.619 52.656 29.128 0 52.684-23.524 52.684-52.656 0.005-29.062-23.557-52.661-52.684-52.661zM116.853 391.238v203.142c0 28.813-23.59 52.266-52.586 52.266-28.883 0-52.262-23.453-52.262-52.266v-278.185c0-38.461 13.833-75.621 38.672-104.636l173.465-184.231c17.211-16.177 21.429-30.551 21.429-52.299v-33.534h188.796l0.211 79.797c0 30.41 2.48 71.008-35.553 110.864l-220.090 221.015c-7.84 7.553-18.131 11.673-29.024 11.673-23.031 0-41.759-18.667-41.759-41.655 0-9.935 3.514-19.588 9.939-27.178l106.162-113.72c6.881-8.046 18.521-23.237 24.304-41.862 3.124-9.686 4.011-19.122 4.181-29.95h-34.168c-0.141 7.732-0.709 13.913-2.555 19.663-3.335 10.747-10.005 20.405-15.012 26.615l-107.755 118.258c-13.552 13.66-20.973 31.368-20.973 49.96 0.005 27.911 16.793 53.6 44.577 66.264zM912.37 391.238v203.142c0 28.813 23.59 52.266 52.581 52.266 28.888 0 52.266-23.453 52.266-52.266v-278.185c0-38.461-13.829-75.621-38.672-104.636l-173.465-184.231c-17.215-16.177-21.429-30.551-21.429-52.299v-33.534h-188.801l-0.211 79.797c0 30.41-2.475 71.008 35.549 110.864l220.094 221.015c7.844 7.553 18.131 11.673 29.029 11.673 23.026 0 41.754-18.667 41.754-41.655 0-9.935-3.509-19.588-9.93-27.178l-106.162-113.72c-6.886-8.046-18.521-23.237-24.308-41.862-3.128-9.686-4.011-19.122-4.185-29.95h34.172c0.132 7.732 0.7 13.913 2.555 19.663 3.335 10.747 9.996 20.405 15.003 26.615l107.755 118.258c13.556 13.66 20.978 31.368 20.978 49.96-0.005 27.911-16.788 53.6-44.572 66.264z" />
<glyph unicode="&#xe62c;" d="M122.936 300.988c2.338 78.521-40.385 108.1-92.473 127.635-17.31-67.182 30.468-123.081 92.473-127.635zM134.738 651.636c33.217 71.128 5.69 115.371-34.554 153.895-42.26-54.913-20.531-125.124 34.554-153.895zM153.474 453.644c-2.296 78.488 40.376 108.17 92.511 127.64 17.244-67.144-30.496-123.039-92.511-127.64zM153.474 332.611c-2.296 78.488 40.376 108.090 92.511 127.598 17.244-67.13-30.496-123.039-92.511-127.598zM153.474 574.639c-2.296 78.516 40.376 108.203 92.511 127.705 17.244-67.21-30.496-123.081-92.511-127.705zM122.936 422.021c2.338 78.483-40.385 108.17-92.473 127.635-17.31-67.144 30.468-123.048 92.473-127.635zM122.936 543.008c2.338 78.521-40.385 108.207-92.473 127.748-17.31-67.243 30.468-123.076 92.473-127.748zM711.245-49.103h-420.981l210.509 364.731 210.472-364.731zM373.91-0.797h253.723l-126.859 219.758-126.864-219.758zM61.482 199.355l891.857 242.627-13.251 49.012-891.927-242.66zM690.812 949.849c0 0 6.532-128.659 119.303-117.746 0 0 12.723 107.492-119.303 117.746zM808.876 531.412c-11.769-16.679-31.417-27.456-53.43-27.456-17.974 0-35.569 8.444-47.441 20.284-24.281 26.502-55.768 85.726-55.768 85.726-17.646 35.831-27.106 63.539-27.106 91.557 0 59.682 48.306 111.448 108.137 111.448 29.472 0 56.077-11.802 75.617-30.884 19.545 19.082 46.117 30.884 75.589 30.884 59.827 0 108.133-51.766 108.133-111.448 0-28.017-9.464-55.726-27.101-91.557 0 0-31.487-59.224-55.768-85.726-11.877-11.839-29.472-20.284-47.45-20.284-22.032 0.014-41.643 10.792-53.412 27.456z" />
<glyph unicode="&#xe62d;" d="M658.299 812.304c0-78.278-63.457-141.735-141.735-141.735s-141.735 63.457-141.735 141.735c0 78.278 63.457 141.735 141.735 141.735 78.278 0 141.735-63.457 141.735-141.735zM516.336 374.332h-149.829v108.159l-114.556-115.324c-51.762-51.781-121.938 14.585-70.081 66.452l189.698 190.077c15.39 15.286 32.24 25.009 58.955 25.009h170.128c26.725 0 44.769-9.42 60.595-25.009l191.622-191.934c49.365-49.346-22.678-116.347-70.043-66.499l-117.56 117.835v-108.756l-148.928-0.009zM664.629 318.22l-112.585-112.623 82.638-82.496-84.685-84.704c-50.009-50 18.973-121.493 70.659-69.778l133.974 139.272c28.734 29.331 36.694 83.51 5.876 114.328-0.095 0.133-95.877 96-95.877 96zM366.545 318.22l112.604-112.623-82.647-82.496 84.685-84.704c50-50-18.954-121.493-70.659-69.778l-133.955 139.262c-28.762 29.331-36.704 83.51-5.876 114.328 0.085 0.142 95.849 96.010 95.849 96.010z" horiz-adv-x="1018" />
<glyph unicode="&#xe62e;" d="M513.343 662.866c11.061-10.433 29.068-22.142 55.943-25.339-4.144-19.272-1.285-40.487 8.598-57.759 12.404-21.707 33.918-34.149 59.006-34.149h81.012c23.088 0 50.572-7.545 50.572-43.452v-41.298h30.16v41.298c0 45.394-30.933 73.602-80.741 73.602h-81.022c-18.171 0-27.87 10.308-32.816 18.963-8.549 14.945-8.636 35.357-0.251 49.606 2.811 4.792 2.763 10.752-0.145 15.505-2.908 4.743-8.144 7.467-13.756 7.197-22.876-1.372-42.129 4.811-55.876 17.756-11.853 11.187-18.654 26.73-18.654 42.67 0 20.924 12.22 60.059 57.837 61.382v-35.434h30.16v6.134c42.602-0.86 73.332-29.493 73.332-68.782 0-15.891-6.54-34.362-17.437-49.422-3.342-4.598-3.816-10.665-1.246-15.708 2.589-5.052 7.786-8.231 13.447-8.231h47.896c62.387 0 96.043-52.069 96.043-101.077v-55.48h30.169v55.48c0 64.512-47.23 131.236-126.242 131.236h-22.016c6.173 14.191 9.525 29.107 9.525 43.192 0 55.827-44.37 98.024-103.492 98.932v38.361h-30.169v-9.032c-57.75-1.208-88.016-46.592-88.016-91.551 0.039-24.19 10.288-47.742 28.179-64.599zM768.483 446h30.16v-91.117h-30.16v91.117zM815.635 446h30.15v-91.117h-30.15v91.117zM521.38 960c-277.147 0-502.61-225.473-502.61-502.62 0-277.137 225.473-502.6 502.6-502.6 277.147 0 502.62 225.473 502.62 502.6 0.010 277.147-225.464 502.62-502.61 502.62zM911.901 457.38c0-85.494-27.687-164.584-74.482-228.97l-126.126 126.107h40.303v90.035h-130.328l-328.878 328.868c64.386 46.795 143.495 74.482 228.99 74.482 215.33 0 390.521-175.191 390.521-390.521zM130.859 457.38c0 84.519 27.059 162.787 72.878 226.777l239.597-239.606h-254.532v-90.025h344.557l214.779-214.77c-64-45.781-142.259-72.868-226.787-72.868-215.301-0.029-390.492 175.143-390.492 390.492z" />
<glyph unicode="&#xe62f;" d="M550.827 947.491c-171.14 0-328.958-128.531-361.754-270.087-7.281-31.453-15.51-113.659-15.51-113.659l-78.599-198.421c-1.588-3.542-2.33-7.628-2.33-11.818 0-16.75 13.528-30.363 30.354-30.363h50.58v-105.402c0-82.239 66.513-148.837 148.64-148.837h59.096v-115.454h219.634v51.519h89.45v-51.519h93.409v320.15c87.768 69.017 144.206 176.302 144.206 296.594-0.005 208.417-168.777 377.297-377.175 377.297zM266.372 488.57c-23.388 0-42.374 18.953-42.374 42.35 0 23.317 18.986 42.238 42.374 42.238 23.181 0 42.2-18.921 42.2-42.238 0-23.397-19.019-42.35-42.2-42.35zM600.928 211.461h89.45v-48.386h-89.45v48.386zM600.928 280.308h89.45v-48.349h-89.45v48.349zM600.928 142.679h89.45v-48.447h-89.45v48.447zM600.928 73.827h89.45v-48.447h-89.45v48.447zM600.928 349.114h89.999c-0.174-3.546-0.564-7.036-0.564-10.672v-37.714h-89.45l0.014 48.386zM848.567 627.961c0-25.76-10.090-49.143-26.497-66.546-2.818-36.742-26.098-67.762-58.546-81.737v-0.343c-39.635-23.073-63.328-62.464-70.534-109.718h-36.639v109.615c0.244 34.168 10.992 56.052 33.515 69.547 8.244 4.74 15.74 10.165 22.115 16.173 16.722-6.003 31.523-17.788 40.918-34.544 1.959-3.297 5.472-5.153 8.929-5.153 1.677 0 3.429 0.413 4.998 1.339 5.012 2.748 6.797 8.995 3.997 13.941h-0.085c-10.541 18.751-26.563 32.594-44.774 40.833 9.338 14.345 14.533 31.448 14.289 51.98 0 0.108 0.127 0.207 0.127 0.348 0 9.272-1.376 18.3-3.847 26.784 21.396 4.082 40.246 14.937 54.117 30.222 3.842 4.228 3.57 10.714-0.686 14.496-4.223 3.809-10.611 3.467-14.383-0.653-12.081-13.148-28.4-22.143-46.94-24.614-14.904 27.606-42.613 47.212-75.095 50.787 2.161 17.507 10.071 33.13 21.941 45.018 3.913 3.983 3.913 10.484 0 14.425-3.983 4.021-10.578 4.021-14.552 0-15.219-15.214-25.37-35.544-27.925-58.175-38.146 4.805-67.528 37.188-67.612 76.622 0 5.599-4.631 10.268-10.127 10.268-5.806 0-10.339-4.669-10.339-10.268 0-6.665 0.644-13.016 1.912-19.263-14.453-12.513-32.444-18.831-50.463-18.831-8.906 0-17.821 1.583-26.248 4.636 0 0-0.127 0.033-0.24 0.070-10.372 3.748-19.879 9.695-28.122 17.934-3.95 3.983-10.47 3.983-14.491 0-4.030-3.983-4.030-10.451 0-14.463 8.436-8.417 17.948-14.937 28.090-19.649-2.034-25.515-16.858-47.456-37.601-59.782-11.983 18.202-30.011 32.622-52.158 39.664-5.519 1.719-11.264-1.273-13.016-6.661-1.508-5.397 1.235-11.128 6.698-12.814 16.459-5.219 29.668-15.351 39.189-28.263-6.388-1.714-12.946-2.64-19.916-2.64 0 0 0 0-0.103 0h-1.132c-26.29 0-50.467-10.47-68.044-27.61-4.162-3.95-4.27-10.442-0.174-14.458 1.959-2.067 4.636-3.091 7.417-3.091 2.335 0 4.909 0.963 6.905 2.884 13.946 13.599 32.965 21.805 53.906 21.805h1.24c49.312 0 90.276 36.718 96.698 84.306 7.004-1.513 14.017-2.33 21.119-2.33 20.024 0 40.208 6.214 57.212 18.507 6.224-14.181 16.036-26.577 27.963-36.197-12.156-14.975-19.301-32.759-21.189-50.951-5.115 0.822-10.508 1.273-15.9 1.273-15.454 0-31.143-3.673-45.746-11.475-4.998-2.645-6.905-8.864-4.256-13.876 1.855-3.401 5.458-5.388 9.127-5.388 1.686 0 3.204 0.371 4.678 1.235 11.753 6.149 24.041 9.066 36.197 9.066 5.425 0 10.785-0.587 15.9-1.682 2.236-20.743 11.198-41.035 26.61-57.175 2.062-2.123 4.707-3.157 7.346-3.157 2.508 0 5.12 0.925 7.145 2.809 4.195 3.955 4.293 10.376 0.315 14.463h-0.075c-13.702 14.491-20.945 32.89-21.424 51.51 0 0.272 0.075 0.474 0 0.789 0 0.371 0 0.756 0 1.127 0 18.075 6.243 35.929 18.615 50.284 13.016-6.482 27.85-10.268 43.543-10.268 0 0 0.070-0.033 0.174-0.033 0 0 0.070 0 0.16 0 42.515-0.132 76.913-34.482 77.087-76.993-8.070 2.128-16.379 3.227-24.895 3.227-12.194 0-24.543-2.231-36.469-7.145-5.289-2.161-7.793-8.103-5.67-13.317 2.161-5.223 8.032-7.76 13.293-5.632 9.545 3.809 19.263 5.67 28.846 5.67 7.727 0 15.379-1.17 22.566-3.401-2.513-11.466-7.422-20.668-15.031-28.841-0.587-0.517-1.132-1.104-1.588-1.79-5.829-5.74-12.833-11.024-21.495-16.271-29.64-17.309-43.844-48.696-43.548-87.162v-109.615h-34.952v104.227c0 38.287-24.003 74.592-54.22 87.505-14.421 5.594-29.461 14.97-40.415 27.23-15.623-10.616-34.365-16.863-54.53-16.863-20.226 0-38.968 6.153-54.497 16.694-15.459-10.165-34.097-16.102-54.051-16.102-54.831 0-99.168 44.431-99.168 99.201 0 40.941 24.759 76.067 60.186 91.178 9.582 43.684 48.278 76.373 94.842 76.373 2.475 0 4.749-0.207 7.041-0.352 17.544 25.656 47.043 42.477 80.459 42.477 16.539 0 32.068-4.115 45.7-11.471 15.383 10.235 33.787 16.177 53.596 16.177 25.45 0 48.631-9.916 66.006-26.023 7.281 1.752 14.792 2.781 22.664 2.781 39.316 0 73.315-23.66 88.491-57.551 39.903-12.086 68.956-49.11 68.956-92.93 0-8.793-1.165-17.267-3.321-25.342 12.415-16.351 19.898-36.747 19.898-58.894z" />
<glyph unicode="&#xe630;" d="M12.946 381.971h641.451v-60.12h-641.451v60.12zM516.401 508.369c0 42.054 34.102 76.081 76.081 76.081 41.942 0 76.133-34.027 76.133-76.081 0-41.923-34.191-76.11-76.133-76.11-41.984-0.005-76.081 34.191-76.081 76.11zM419.117 587.109h-254.868l-151.547-23.2v-131.546l76.481-0.033c-6.069 9.813-9.747 21.269-9.747 33.614 0 35.511 28.869 64.38 64.376 64.38h139.569l113.138 23.641 6.266-30.048-116.243-24.28h-142.74c-18.615 0-33.689-15.069-33.689-33.689 0-18.441 14.839-33.379 33.252-33.614l276.353-0.038c42.726 0.338 77.016 34.76 77.016 77.321 0.014 42.759-34.586 77.49-77.617 77.49zM551.006 160.444c170.022 0 307.839 137.836 307.839 307.862 0 170.040-137.813 307.867-307.839 307.867-111.146 0-208.271-59.152-262.393-147.479h128.921c36.352 30.457 83.122 48.833 134.247 48.833 115.534 0 209.206-93.687 209.206-209.23 0-115.566-93.673-209.253-209.206-209.253-32.782 0-63.666 7.76-91.286 21.194h-152.825c56.282-72.751 144.224-119.794 243.336-119.794zM551.006 946.040c-210.662 0-389.247-136.817-452.143-326.384l58.711 9.141 95.26-0.033c57.194 106.069 169.247 178.167 298.167 178.167 187.016 0 338.601-151.618 338.601-338.62 0-187.026-151.585-338.615-338.601-338.615-117.422 0-220.808 59.829-281.539 150.617h-155.695c73.207-168.922 241.377-287.171 437.234-287.171 263.121 0 476.451 213.302 476.451 476.451 0 263.107-213.33 476.447-476.447 476.447zM659.118 837.688c-1.729-6.877-7.868-11.461-14.646-11.461-1.217 0-2.461 0.132-3.673 0.474-58.138 14.5-119.883 14.5-178.077 0-8.093-2.161-16.29 2.898-18.315 10.992-2.025 8.093 2.903 16.285 11.029 18.31 62.957 15.717 129.729 15.717 192.686 0 8.093-2.029 13.016-10.221 10.996-18.315z" horiz-adv-x="1029" />
<glyph unicode="&#xe631;" d="M156.099 574.953c29.696 0 53.849-24.111 53.849-53.863 0-29.696-24.163-53.816-53.849-53.816s-53.816 24.125-53.816 53.816c-0.005 29.757 24.125 53.863 53.816 53.863zM512.991 874.67c39.095 0 70.872-31.739 70.872-70.877s-31.772-70.773-70.872-70.773c-39.067 0-70.783 31.645-70.783 70.773 0 39.133 31.716 70.877 70.783 70.877zM122.889 645.768l11.010-17.502c25.309 15.966 58.941 8.319 74.874-16.99l17.464 11.039c-22.016 34.924-68.378 45.465-103.349 23.453zM172.549 728.985l6.778-19.498c28.282 9.841 59.322-5.134 69.143-33.402l19.484 6.797c-13.594 39.006-56.405 59.674-95.406 46.103zM239.644 798.931l2.241-20.541c29.757 3.232 56.602-18.366 59.866-48.095l20.508 2.255c-4.481 41.040-41.533 70.83-82.615 66.382zM318.323 831.474c29.724-3.551 51.036-30.621 47.484-60.346l20.508-2.433c4.862 41.035-24.543 78.388-65.531 83.287l-2.461-20.508zM647.342 857.938c17.53-24.252 12.034-58.265-12.161-75.804l12.095-16.746c33.435 24.233 40.988 71.126 16.797 104.626l-16.732-12.077zM731.272 817.744c11.616-27.582-1.343-59.448-28.893-71.102l8.032-19.033c38.015 16.032 55.93 60.087 39.908 98.135l-19.047-7.999zM804.033 759.738c5.12-29.536-14.688-57.659-44.192-62.812l3.523-20.334c40.702 7.088 68.091 45.963 61.017 86.66l-20.348-3.514zM804.667 635.561l-1.113-20.602c41.242-2.241 76.626 29.456 78.933 70.726l-20.635 1.137c-1.635-29.893-27.263-52.896-57.184-51.261zM859.643 460.518c-29.945 0-54.234 24.092-54.234 53.788 0 29.705 24.28 53.788 54.234 53.788 29.921 0 54.239-24.078 54.239-53.788 0-29.696-24.322-53.788-54.239-53.788zM916.884 368.598l20.283-0.033 41.5-144.929c3.199-11.118 15.614-17.23 27.737-13.763 12.166 3.471 19.841 14.092 15.745 27.996l-42.679 148.677c-17.051 59.448-66.809 57.588-66.809 57.588h-106.036c0 0-49.716 1.86-66.809-57.588l-42.712-148.677c-4.063-13.904 3.617-24.524 15.773-27.996 12.124-3.471 24.543 2.64 27.704 13.763l41.528 144.929 20.255 0.033-55.446-193.339h225.444l-55.479 193.339zM154.981 389.172c19.423 0 30.842 7.102 31.26 60.796-19.479 0-42.43 0-61.656 0 0.446-53.699 10.846-60.796 30.396-60.796zM228.286 364.661h19.681c0 0 0-135.234 0-150.35 0-13.025 10.527-23.613 23.486-23.613 13.021 0 23.294 10.588 23.294 23.613 0 12.993 0 147.371 0 166.762 0 38.052-31.199 68.895-69.242 68.895-4.383 0-13.246 0-24.351 0 0-52.398-15.294-74.588-37.855-74.588v-60.599c6.656-2.837 11.358-9.465 11.358-17.145 0-10.301-8.253-18.784-18.554-18.784-10.339 0-18.554 8.192-18.554 18.531 0 7.727 4.641 14.303 11.292 17.15v60.637c-23.679 0-38.264 24.205-38.264 74.804-10.625 0-19.038 0-23.167 0-38.076 0-72.023-30.842-72.023-68.89 0-19.39 0-153.774 0-166.766 0-13.025 10.207-23.608 23.228-23.608 12.993 0 23.547 10.583 23.547 23.608 0 15.12 0 150.354 0 150.354h19.484v-189.407h146.643v189.398h-0.005zM621.108 616.373h-17.915v-558.785c0-22.058-17.887-39.931-39.964-39.931s-39.959 17.873-39.959 39.931v346.079h-20.475v-346.079c0-22.058-17.948-39.931-40.025-39.931s-39.931 17.873-39.931 39.931v558.785h-17.986l-0.028-206.059c0-16.84-13.664-30.49-30.495-30.49s-30.495 13.65-30.495 30.49v227.835c0 50.171 35.901 78.599 85.077 78.599h168.208c49.147 0 85.077-28.428 85.077-78.599v-227.835c0-16.84-13.66-30.49-30.49-30.49s-30.495 13.65-30.495 30.49l-0.103 206.059z" horiz-adv-x="1029" />
<glyph unicode="&#xe632;" d="M505.982 681.667c75.692 0 137.081 61.398 137.081 137.090s-61.393 137.062-137.081 137.062c-75.711 0-137.114-61.37-137.114-137.062 0.005-75.688 61.393-137.090 137.114-137.090zM686.857 639.949c-22.467 0-90.503 0-161.396 0v-128l29.677-7.27v29.677c0 19.284 17.571 36.785 49.636 15.225 45.168-30.45 93.789-203.39 41.048-196.58-25.46 3.244-39.848 15.593-67.877 17.166-22.77 1.173-22.77 10.961-22.803 23.841-0.028 12.879 0 54.23 0 54.23v23.040c-9.616 2.313-20.755 5.032-29.673 7.247v-158.287c0 0 44.497 30.25 76.316 5.604 20.056-15.602 32.628-60.495-29.44-97.080-14.317-8.713-92.281-29.342-116.759 16.579h-27.597c-12.442 0-22.533-10.17-22.533-22.607s10.091-22.57 22.533-22.57h163.444c25.819 0 46.843-21.029 46.843-46.876 0-25.856-21.029-46.848-46.843-46.848h-169.114c-5.767 0-10.496-4.724-10.496-10.566 0-5.8 4.729-10.496 10.496-10.496h169.114c25.819 0 46.843-21.029 46.843-46.885s-21.029-46.848-46.843-46.848h-197.786c-10.026 0-18.176 8.118-18.176 18.181 0 10.021 8.145 18.171 18.176 18.171h197.786c5.767 0 10.496 4.696 10.496 10.496 0 5.809-4.729 10.538-10.496 10.538h-169.114c-25.819 0-46.843 21.034-46.843 46.848 0 25.861 21.025 46.913 46.843 46.913h169.114c5.767 0 10.496 4.696 10.496 10.496s-4.729 10.529-10.496 10.529h-163.444c-32.461 0-58.88 26.433-58.88 58.927 0 32.484 26.419 58.945 58.88 58.945h36.482c0.233 0 0.433-0.13 0.67-0.13h12.409c12.069 0 11.604 12.772 11.567 12.772v182.305c-10.263-2.853-22.002-6.107-29.649-8.22v-20.15c0 0 0.033-41.346 0-54.221 0-12.879-0.102-22.677-22.798-23.855-28.006-1.569-42.384-13.912-67.896-17.166-52.722-6.8-4.059 166.135 41.007 196.589 32.056 21.565 49.697 4.059 49.697-15.225v-32.261l29.649 8.187v129.676c-68.575 0-133.027 0-154.284 0-97.010 0-183.529-78.606-183.529-175.593 0-49.389 0-391.908 0-425.076 0-33.164 26.089-60.062 59.187-60.062 33.164 0 59.992 26.899 59.992 60.062 0 38.637 0 383.265 0 383.265h49.697v-464.016h373.658v464.016h50.232c0 0 0-344.627 0-383.265 0-33.164 26.857-60.062 60.020-60.062s59.229 26.899 59.229 60.062c0 33.168 0 375.687 0 425.076-0.019 96.945-79.49 175.551-176.472 175.551z" horiz-adv-x="1019" />
</font>
</defs>
</svg>
